[Цитировать]
BOT2

-Наша Вселенная 3D / Our Universe 3DГод выпуска: 2013
Страна: США
Жанр: документальный
Продолжительность: 00:51:33
Перевод: Дубляж-Режиссер: Калле Макс Хофманн / Kalle Max Hofmann-В ролях: Манфред Леманн (рассказчик (German)), Глен МакКреди (рассказчик (English))-Описание:
Звездное небо было объектом внимания людей с доисторических времен. И неудивительно, ведь именно в глубинах вселенной зародилась жизнь. В наши дни, благодаря современным технологиям, самые невероятные и удивительные секреты вселенной стали доступны для понимания. Космические корабли и роботизированные зонды исследуют, сканируют и фотографируют миллиарды отдаленных планет. С помощью уникальной передовой технологии «Наша вселенная 3D» даст вам возможность насладиться сногсшибательными видами и разгадать необыкновенные звездные феномены, не выходя из дома.-Рейтинг
-Качество: BDRip 1080p / 60 FPS [Горизонтальная анаморфная стереопара]
Порядок ракурсов [Правый ракурс первый]
Формат: MKV
Видео кодек: AVC
Аудио кодек: AC3
Видео: AVC, 1920x1080 (16:9), 13000 kbps, 59,940 fps, 0,105 bpp
Аудио: AC3 / 2.0 / 48 kHz / 448 kbps / 16 bit- -

MI

General
Unique ID : 239428993891986281032942400576037665033 (0xB42058CDB9805568BB26D67ECEF93909)
Complete name : E:\Кодировка\Раздача\Наша вселенная 3D-60fps.mkv
Format : Matroska
Format version : Version 4 / Version 2
File size : 4.85 GiB
Duration : 51mn 33s
Overall bit rate : 13.5 Mbps
Encoded date : UTC 2015-07-18 15:21:03
Writing application : mkvmerge v7.0.0 ('Where We Going') 64bit built on Jun 9 2014 15:16:27
Writing library : libebml v1.3.0 + libmatroska v1.4.1
Video
ID : 1
Format : AVC
Format/Info : Advanced Video Codec
Format profile : High@L4.1
Format settings, CABAC : Yes
Format settings, ReFrames : 4 frames
Codec ID : V_MPEG4/ISO/AVC
Duration : 51mn 33s
Bit rate : 13.0 Mbps
Width : 1 920 pixels
Height : 1 080 pixels
Display aspect ratio : 16:9
Frame rate : 59.940 fps
Color space : YUV
Chroma subsampling : 4:2:0
Bit depth : 8 bits
Scan type : Progressive
Bits/(Pixel*Frame) : 0.105
Stream size : 4.59 GiB (95%)
Writing library : x264 core 146 r2538 121396c
Encoding settings : cabac=1 / ref=4 / deblock=1:0:0 / analyse=0x3:0 / me=umh / subme=10 / psy=1 / psy_rd=0.00:0.00 / mixed_ref=1 / me_range=42 / chroma_me=0 / trellis=2 / 8x8dct=1 / cqm=0 / deadzone=21,11 / fast_pskip=0 / chroma_qp_offset=0 / threads=12 / lookahead_threads=3 / sliced_threads=0 / nr=0 / decimate=0 / interlaced=0 / bluray_compat=0 / constrained_intra=0 / bframes=16 / b_pyramid=2 / b_adapt=2 / b_bias=0 / direct=3 / weightb=1 / open_gop=0 / weightp=2 / keyint=250 / keyint_min=25 / scenecut=40 / intra_refresh=0 / rc_lookahead=40 / rc=2pass / mbtree=1 / bitrate=13000 / ratetol=1.0 / qcomp=0.60 / qpmin=0 / qpmax=69 / qpstep=4 / cplxblur=20.0 / qblur=0.5 / ip_ratio=1.40 / aq=1:0.90
Language : English
Default : Yes
Forced : No
Audio
ID : 2
Format : AC-3
Format/Info : Audio Coding 3
Mode extension : CM (complete main)
Codec ID : A_AC3
Duration : 51mn 33s
Bit rate mode : Constant
Bit rate : 448 Kbps
Channel(s) : 2 channels
Channel positions : Front: L R
Sampling rate : 48.0 KHz
Bit depth : 16 bits
Compression mode : Lossy
Stream size : 165 MiB (3%)
Default : Yes
Forced : No

Скриншоты

Просьба к переливающим на другие сайты, в оформлении указывайте пожалуйста авторство группы
 
Показать сообщения:    

Текущее время: 08-Дек 19:09

Часовой пояс: UTC + 3


Вы не можете начинать темы
Вы не можете отвечать на сообщения
Вы не можете редактировать свои сообщения
Вы не можете удалять свои сообщения
Вы не можете голосовать в опросах
Вы не можете прикреплять файлы к сообщениям
Вы не можете скачивать файлы