[Цитировать]
Kryl

«The rich will pay»- Информация
Название: Налетчики
Оригинальное название: Marauders
Год выхода: 2016
Жанр: Боевик
Режиссер: Стивен С. Миллер
Сценарий: Крис Сивертсон, Майкл Коуди
Продюсер: Рози Шарбонно, Рэндолл Эмметт, Джордж Фурла
В ролях: Брюс Уиллис, Кристофер Мелони, Дэйв Батиста, Адриан Гренье, Лидия Халл, Тайлер Джон Олсон, Кристофер Роб Бауэн, Ричи Чэнс, Дэнни А. Абекейзер
--Сюжет:
История об агенте ФБР, который нападает на след преступников, ограбивших банк и отдавших все украденные деньги на благотворительные нужды. Чем дальше продвигается расследование, тем больше главный герой убеждается в том, что у владельца банка имеются собственные секреты.- Страна: Канада
Продолжительность: 01:47:36

Файл
Кодек: MPEG4/ISO/AVC H.264 |
Формат: MKV
Качество: BDRip 720p | 60 fps
Видео: 1280 x 534 (2.397) | 59.940 fps | 8.0 Мбит/сек
Аудио 1: AC3 | 5.1 | 48 kHz | 384 kbps | 16 bit | Авторский одноголосый закадровый - В. Котов |
Аудио 2: AC3 | 5.1 | 48 kHz | 640 kbps | 16 bit | Любительский многоголосый закадровый - СПД |
Аудио 3: AC3 | 5.1 | 48 kHz | 640 kbps | 24 bit | ENG |
Субтитры: Русские, английские

MedifInfo

Видео
Идентификатор : 1
Формат : AVC
Формат/Информация : Advanced Video Codec
Профиль формата : High@L4.1
Параметр CABAC формата : Да
Параметр ReFrames формата : 3 кадра
Идентификатор кодека : V_MPEG4/ISO/AVC
Продолжительность : 1 ч. 47 м.
Вид битрейта : Переменный
Битрейт : 7666 Кбит/сек
Максимальный битрейт : 8000 Кбит/сек
Ширина : 1280 пикселей
Высота : 534 пикселя
Соотношение сторон : 2,40:1
Режим частоты кадров : Постоянный
Частота кадров : 59,880 кадров/сек
Частота кадров в оригинале : 59,940 кадров/сек
Стандарт вещания : PAL
Цветовое пространство : YUV
Субдискретизация насыщенности : 4:2:0
Битовая глубина : 8 бит
Тип развёртки : Прогрессивная
Бит/(Пиксели*Кадры) : 0.187
Размер потока : 5,74 Гбайт (81%)
Заголовок : www.60-fps.org
Язык : English
Default : Да
Forced : Нет
Основные цвета : BT.601 NTSC
Характеристики трансфера : BT.601
Коэффициенты матрицы : BT.601
colour_range : Limited
Аудио #1
Идентификатор : 2
Формат : AC-3
Формат/Информация : Audio Coding 3
Расширение режима : CM (complete main)
Параметр Endianness формата : Big
Идентификатор кодека : A_AC3
Продолжительность : 1 ч. 47 м.
Вид битрейта : Постоянный
Битрейт : 384 Кбит/сек
Каналы : 6 каналов
Расположение каналов : Front: L C R, Side: L R, LFE
Частота : 48,0 КГц
Битовая глубина : 16 бит
Метод сжатия : С потерями
Размер потока : 294 Мбайт (4%)
Заголовок : Авторский одноголосый закадровый - В. Котов
Язык : Russian
Default : Да
Forced : Да
Аудио #2
Идентификатор : 3
Формат : AC-3
Формат/Информация : Audio Coding 3
Расширение режима : CM (complete main)
Параметр Endianness формата : Big
Идентификатор кодека : A_AC3
Продолжительность : 1 ч. 47 м.
Вид битрейта : Постоянный
Битрейт : 640 Кбит/сек
Каналы : 6 каналов
Расположение каналов : Front: L C R, Side: L R, LFE
Частота : 48,0 КГц
Битовая глубина : 16 бит
Метод сжатия : С потерями
Размер потока : 490 Мбайт (7%)
Заголовок : Любительский многоголосый закадровый - СПД
Default : Нет
Forced : Нет
Аудио #3
Идентификатор : 4
Формат : AC-3
Формат/Информация : Audio Coding 3
Расширение режима : CM (complete main)
Параметр Endianness формата : Big
Идентификатор кодека : A_AC3
Продолжительность : 1 ч. 47 м.
Вид битрейта : Постоянный
Битрейт : 640 Кбит/сек
Каналы : 6 каналов
Расположение каналов : Front: L C R, Side: L R, LFE
Частота : 48,0 КГц
Битовая глубина : 16 бит
Метод сжатия : С потерями
Размер потока : 490 Мбайт (7%)
Заголовок : Eng
Default : Нет
Forced : Нет
Текст #1
Идентификатор : 5
Формат : UTF-8
Идентификатор кодека : S_TEXT/UTF8
Идентификатор кодека/Информация : UTF-8 Plain Text
Заголовок : Full
Язык : Russian
Default : Нет
Forced : Нет
Текст #2
Идентификатор : 6
Формат : UTF-8
Идентификатор кодека : S_TEXT/UTF8
Идентификатор кодека/Информация : UTF-8 Plain Text
Заголовок : Full
Язык : English
Default : Нет
Forced : Нет
Текст #3
Идентификатор : 7
Формат : UTF-8
Идентификатор кодека : S_TEXT/UTF8
Идентификатор кодека/Информация : UTF-8 Plain Text
Заголовок : SDH
Язык : English
Default : Нет
Forced : Нет
Меню
00:00:00.000 : en:00:00:00.000
00:05:19.402 : en:00:05:19.402
00:11:57.717 : en:00:11:57.717
00:17:46.107 : en:00:17:46.107
00:24:42.648 : en:00:24:42.648
00:30:33.874 : en:00:30:33.874
00:39:07.679 : en:00:39:07.679
00:46:14.981 : en:00:46:14.981
00:51:49.356 : en:00:51:49.356
00:55:58.272 : en:00:55:58.272
01:02:08.016 : en:01:02:08.016
01:09:21.699 : en:01:09:21.699
01:16:38.594 : en:01:16:38.594
01:22:48.839 : en:01:22:48.839
01:28:22.172 : en:01:28:22.172
01:34:08.351 : en:01:34:08.351

Релиз подготовлен 60 - fps

Топик был перенесен из форума Новинки Кино 60 FPS в форум Зарубежные фильмы 60 FPS
Kryl

[Цитировать]
Licherus

Извините что не в тему. Вы будете делать в 60 fps новинку Kingsglaive: Final Fantasy XV?

[Цитировать]
Kryl

6486Извините что не в тему. Вы будете делать в 60 fps новинку Kingsglaive: Final Fantasy XV?
когда исходник будет в сети , тогда может ми сделаю )

[Цитировать]
Licherus

6489
6486Извините что не в тему. Вы будете делать в 60 fps новинку Kingsglaive: Final Fantasy XV?
когда исходник будет в сети , тогда может ми сделаю )
Спасибо! Улыбаюсь
 
Показать сообщения:    

Текущее время: 02-Дек 21:05

Часовой пояс: UTC + 3


Вы не можете начинать темы
Вы не можете отвечать на сообщения
Вы не можете редактировать свои сообщения
Вы не можете удалять свои сообщения
Вы не можете голосовать в опросах
Вы не можете прикреплять файлы к сообщениям
Вы не можете скачивать файлы