Агент Ева / Ava (2020) BDRip 1080p | 60 fps Танго и Кэш / Tango & Cash (1989) BDRemux 1080p | 60 fps Властелин колец: Трилогия / The Lord of the Rings: Trilogy (2001-2003) BDRip-AVC | Extended Cut | 60 fps Ультрафиолет / Ultraviolet (2006) BDRip 1080p | 60 fps Девушка-невидимка / Shadow Girl (2019) BDRip 720p | 60 fps Не входи / The Owners(2020) BDRip 720p | 60 fps Вивариум / Vivarium (2019) BDRip 720p | 60 fps Где-то во времени / The Fare (2018) BDRip 720p | 60 fps
  1. Longevity:
    4 years 3 months
    Posts:
    221
    Gender:
    Male
    Заказать фильмы, клипы или любое другое видео в качестве 60fps может каждый!!!
    Стоимость одного видео 50руб. !!!
    Пишите Талямба в личку, всё обсудите...
    Наемник / American Assassin (2017) BDRip 1080p |HDR| 60 fps Информация
    Название: Наемник
    Оригинальное название: American Assassin
    Год выхода: 2017
    Жанр: Боевик
    Режиссер: Майкл Куэста
    В ролях: Дилан О’Брайен, Майкл Китон, Санаа Лэтэн, Шива Негар, Тейлор Китч, Дэвид Суше, Навид Негабан, Скотт Эдкинс, Шарлотта Вега, Кристофер Уэбстер
    Страна: США
    Продолжительность: 1 ч. 51 м. 44 с.
    -- Сюжет:
    23-летний агент ЦРУ Митч Рэпп (Дилан О'Брайен), еще в раннем возрасте оставшийся без родителей, тяжело переживает гибель своей невесты, ставшей жертвой теракта. Решив помочь убитому горем Митчу, заместитель директора ЦРУ Ирэн Кеннеди (Санаа Лэтэн) назначает ему нового наставника в лице ветерана Холодной войны Стэна Хёрли (Майкл Китон), который должен обучить Рэппа навыкам противодействия терроризму. В самый разгар обучения Хёрли и Рэпп вынуждены отправиться на опасное задание, их цель — найти и остановить неизвестного оперативника по прозвищу «Призрак» (Тэйлор Китч), который планирует начать Третью мировую войну на Ближнем Востоке. -- Файл
    Кодек: V_MPEG4/ISO/AVC
    Формат: MKV
    Качество: BDRip 1080p | HDR | 60 fps
    Видео: 1920 x 800 (2,40:1) | 59.940 fps | 30.0 Мбит/сек
    Аудио 1: AC3, 48.0 kHz, 6 ch, 384 kb/s | Дублированный |
    Аудио 2: AC3, 48.0 kHz, 6 ch, 448 kb/s | "Paradox" & Omskbird records |
    Аудио 5: DTS-HD MA 8 ch, 3876 kb/s | ENG [Оригинал] |

    MedifInfo

    Общее
    Уникальный идентификатор : 222431069259980376784747867789714598152 (0xA756AA6A54CF7E02B50247BEC2252908)
    Полное имя : D:\Movie\Наёмник.2017.BDRip.1080p.HDR.60fps.mkv
    Формат : Matroska
    Версия формата : Version 2
    Размер файла : 26,9 Гбайт
    Продолжительность : 1 ч. 51 м.
    Общий поток : 34,5 Мбит/сек
    Дата кодирования : UTC 2021-04-21 17:52:11
    Программа кодирования : mkvmerge v5.8.0 ('No Sleep / Pillow') built on Sep 2 2012 15:37:04
    Библиотека кодирования : libebml v1.2.3 + libmatroska v1.3.0
    Attachments : Poster
    Видео
    Идентификатор : 1
    Формат : AVC
    Формат/Информация : Advanced Video Codec
    Профиль формата : [email protected]
    Параметр CABAC формата : Да
    Параметр ReFrames формата : 5 кадров
    Режим смешивания : Header stripping
    Идентификатор кодека : V_MPEG4/ISO/AVC
    Продолжительность : 1 ч. 51 м.
    Номинальный битрейт : 30,0 Мбит/сек
    Ширина : 1920 пикселей
    Высота : 800 пикселей
    Соотношение сторон : 2,40:1
    Режим частоты кадров : Постоянный
    Частота кадров : 59,940 (60000/1001) кадров/сек
    Цветовое пространство : YUV
    Субдискретизация насыщенности : 4:2:0
    Битовая глубина : 8 бит
    Тип развёртки : Прогрессивная
    Бит/(Пиксели*Кадры) : 0.326
    Библиотека кодирования : x264 core 146 r2538 121396c
    Настройки программы : cabac=1 / ref=5 / deblock=1:0:0 / analyse=0x3:0x113 / me=umh / subme=8 / psy=1 / psy_rd=1.00:0.25 / mixed_ref=1 / me_range=16 / chroma_me=1 / trellis=1 / 8x8dct=1 / cqm=0 / deadzone=6,6 / fast_pskip=1 / chroma_qp_offset=-4 / threads=12 / lookahead_threads=3 / sliced_threads=0 / nr=0 / decimate=0 / interlaced=0 / bluray_compat=0 / constrained_intra=0 / bframes=3 / b_pyramid=2 / b_adapt=2 / b_bias=0 / direct=3 / weightb=1 / open_gop=0 / weightp=2 / keyint=600 / keyint_min=60 / scenecut=40 / intra_refresh=0 / rc_lookahead=50 / rc=2pass / mbtree=1 / bitrate=30000 / ratetol=1.0 / qcomp=0.80 / qpmin=0 / qpmax=69 / qpstep=4 / cplxblur=20.0 / qblur=0.5 / vbv_maxrate=50000 / vbv_bufsize=50000 / nal_hrd=none / filler=0 / ip_ratio=1.10 / aq=1:0.50
    Язык : English
    Default : Да
    Forced : Нет
    Аудио #1
    Идентификатор : 2
    Формат : AC-3
    Формат/Информация : Audio Coding 3
    Расширение режима : CM (complete main)
    Параметр Endianness формата : Big
    Режим смешивания : Header stripping
    Идентификатор кодека : A_AC3
    Продолжительность : 1 ч. 51 м.
    Вид битрейта : Постоянный
    Битрейт : 384 Кбит/сек
    Каналы : 6 каналов
    Расположение каналов : Front: L C R, Side: L R, LFE
    Частота : 48,0 КГц
    Частота кадров : 31,250 кадров/сек (1536 spf)
    Битовая глубина : 16 бит
    Метод сжатия : С потерями
    Размер потока : 307 Мбайт (1%)
    Заголовок : Dub, iTunes
    Язык : Russian
    Default : Да
    Forced : Нет
    Аудио #2
    Идентификатор : 3
    Формат : AC-3
    Формат/Информация : Audio Coding 3
    Расширение режима : CM (complete main)
    Параметр Endianness формата : Big
    Режим смешивания : Header stripping
    Идентификатор кодека : A_AC3
    Продолжительность : 1 ч. 51 м.
    Вид битрейта : Постоянный
    Битрейт : 448 Кбит/сек
    Каналы : 6 каналов
    Расположение каналов : Front: L C R, Side: L R, LFE
    Частота : 48,0 КГц
    Частота кадров : 31,250 кадров/сек (1536 spf)
    Битовая глубина : 16 бит
    Метод сжатия : С потерями
    Размер потока : 358 Мбайт (1%)
    Заголовок : MVO, "Paradox" & Omskbird records
    Язык : Russian
    Default : Нет
    Forced : Нет
    Аудио #3
    Идентификатор : 4
    Формат : DTS
    Формат/Информация : Digital Theater Systems
    Профиль формата : MA / Core
    Режим : 16
    Параметр Endianness формата : Big
    Режим смешивания : Header stripping
    Идентификатор кодека : A_DTS
    Продолжительность : 1 ч. 51 м.
    Вид битрейта : Переменный / Постоянный
    Битрейт : Неизвестно / 1509 Кбит/сек
    Каналы : 8 каналов / 6 каналов
    Расположение каналов : Front: L C R, Side: L R, Back: L R, LFE / Front: L C R, Side: L R, LFE
    Частота : 48,0 КГц
    Частота кадров : 93,750 кадра/сек (512 spf)
    Битовая глубина : 24 бит
    Метод сжатия : Без потерь / Lossy
    Заголовок : Original
    Язык : English
    Default : Нет
    Forced : Нет

    Release was prepared by 60-fps.org



You cannot post new topics in this forum
You cannot reply to topics in this forum
You cannot edit your posts in this forum
You cannot delete your posts in this forum
You cannot vote in polls in this forum
You cannot attach files in this forum
You cannot download files in this forum