[Цитировать]
Талямба

Фильм «Хочешь жить - делай что говорят» Фильм- Информация
Название: На крючке
Оригинальное название: Eagle Eye
Год выхода: 2008
Жанр: фантастика, боевик, триллер, детектив
Режиссер: Дэн МакДермотт
Сценарий: Дэн МакДермотт, Джон Гленн, Трэвис Райт
Продюсер: Патрик Краули, Алекс Куртцман, Роберто Орси
В ролях: Шайа ЛаБаф,Мишель Монахэн,Билли Боб Торнтон,Розарио Доусон,Майкл Чиклис,Энтони Маки,Итэн Эмбри,Энтони Азизи,Кэмерон Бойс,Линн Коэн
--Сюжет:
Юный бездельник живет беззаботной жизнью, в отличие от своего брата-близнеца, стремящегося добиться успеха во всех сферах жизни, пока… тот не погибает при загадочных обстоятельствах. В то же время у матери-одиночки Рэйчел крадут ребёнка…-- Страна: США, Германия
Продолжительность: 01:57:35

Файл
Кодек: MPEG4/ISO/AVC H.264/High@L4.1
Формат: MKV
Качество: BDRip 1080p | 60 fps
Видео: 1920 x 800 (2.400) | 59.940 fps | 14,0 Мбит/сек
Аудио 1: AC3 | 5.1 | 48 kHz | 640 Кбит/сек | 16 bit | Дубляж
Субтитры: Russian,English

MedifInfo

Видео
Идентификатор : 1
Формат : AVC
Формат/Информация : Advanced Video Codec
Профиль формата : High@L4.1
Параметр CABAC формата : Да
Параметр ReFrames формата : 4 кадра
Идентификатор кодека : V_MPEG4/ISO/AVC
Продолжительность : 1 ч. 57 м.
Битрейт : 14,0 Мбит/сек
Ширина : 1920 пикселей
Высота : 800 пикселей
Соотношение сторон : 2,40:1
Режим частоты кадров : Постоянный
Частота кадров : 59,940 (59940/1000) кадров/сек
Цветовое пространство : YUV
Субдискретизация насыщенности : 4:2:0
Битовая глубина : 8 бит
Тип развёртки : Прогрессивная
Бит/(Пиксели*Кадры) : 0.152
Размер потока : 11,2 Гбайт (96%)
Библиотека кодирования : x264 core 146 r2538 121396c
Настройки программы : cabac=1 / ref=4 / deblock=1:0:0 / analyse=0x3:0x113 / me=umh / subme=9 / psy=1 / psy_rd=1.00:0.10 / mixed_ref=1 / me_range=32 / chroma_me=1 / trellis=2 / 8x8dct=1 / cqm=0 / deadzone=21,11 / fast_pskip=0 / chroma_qp_offset=-3 / threads=12 / lookahead_threads=3 / sliced_threads=0 / nr=0 / decimate=1 / interlaced=0 / bluray_compat=0 / constrained_intra=0 / bframes=16 / b_pyramid=2 / b_adapt=2 / b_bias=0 / direct=3 / weightb=1 / open_gop=0 / weightp=2 / keyint=250 / keyint_min=25 / scenecut=40 / intra_refresh=0 / rc_lookahead=40 / rc=2pass / mbtree=1 / bitrate=14000 / ratetol=1.0 / qcomp=0.60 / qpmin=0 / qpmax=69 / qpstep=4 / cplxblur=20.0 / qblur=0.5 / vbv_maxrate=14000 / vbv_bufsize=14000 / nal_hrd=none / filler=0 / ip_ratio=1.40 / aq=1:1.00
Язык : English
Default : Да
Forced : Нет
Аудио
Идентификатор : 2
Формат : AC-3
Формат/Информация : Audio Coding 3
Расширение режима : CM (complete main)
Параметр Endianness формата : Big
Идентификатор кодека : A_AC3
Продолжительность : 1 ч. 57 м.
Вид битрейта : Постоянный
Битрейт : 640 Кбит/сек
Каналы : 6 каналов
Расположение каналов : Front: L C R, Side: L R, LFE
Частота : 48,0 КГц
Частота кадров : 31,250 кадров/сек (1536 spf)
Битовая глубина : 16 бит
Метод сжатия : С потерями
Размер потока : 538 Мбайт (4%)
Язык : Russian
Default : Нет
Forced : Нет
Текст #1
Идентификатор : 3
Формат : UTF-8
Идентификатор кодека : S_TEXT/UTF8
Идентификатор кодека/Информация : UTF-8 Plain Text
Продолжительность : 1 ч. 49 м.
Битрейт : 129 бит/сек
Count of elements : 1555
Размер потока : 104 Кбайт (0%)
Язык : Russian
Default : Нет
Forced : Нет
Текст #2
Идентификатор : 4
Формат : UTF-8
Идентификатор кодека : S_TEXT/UTF8
Идентификатор кодека/Информация : UTF-8 Plain Text
Продолжительность : 1 ч. 49 м.
Битрейт : 74 бит/сек
Count of elements : 1467
Размер потока : 60,0 Кбайт (0%)
Язык : English
Default : Нет
Forced : Нет
Меню
00:00:00.000 : :Chapter 01
00:05:49.140 : :Chapter 02
00:10:39.555 : :Chapter 03
00:16:26.902 : :Chapter 04
00:19:33.964 : :Chapter 05
00:23:41.753 : :Chapter 06
00:26:22.831 : :Chapter 07
00:31:42.400 : :Chapter 08
00:38:06.492 : :Chapter 09
00:43:23.142 : :Chapter 10
00:46:29.953 : :Chapter 11
00:52:01.243 : :Chapter 12
00:56:03.568 : :Chapter 13
01:00:40.345 : :Chapter 14
01:04:26.654 : :Chapter 15
01:09:07.977 : :Chapter 16
01:15:33.153 : :Chapter 17
01:20:58.770 : :Chapter 18
01:25:43.179 : :Chapter 19
01:32:52.108 : :Chapter 20
01:39:48.399 : :Chapter 21
01:44:35.060 : :Chapter 22
01:48:16.907 : :Chapter 23
01:50:48.391 : :Chapter 24
01:57:34.839 : :Chapter 25
 
Показать сообщения:    

Текущее время: 18-Окт 14:05

Часовой пояс: UTC + 3


Вы не можете начинать темы
Вы не можете отвечать на сообщения
Вы не можете редактировать свои сообщения
Вы не можете удалять свои сообщения
Вы не можете голосовать в опросах
Вы не можете прикреплять файлы к сообщениям
Вы не можете скачивать файлы