[Цитировать]
Kryl

«The only law that matters is gravity»- Информация
Название: На гребне волны
Оригинальное название: Point Break
Год выхода: 2015
Жанр: боевик, триллер, криминал, спорт
Режиссер: Эриксон Кор
Сценарий: Курт Уиммер, В. Питер Айлифф, Рик Кинг
Продюсер: Джон Балдеччи, Бродерик Джонсон, Эндрю А. Косов
В ролях: Люк Брейси , Эдгар Рамирес , Рэй Уинстон , Тереза Палмер , Матиас Варела , Клеменс Шик , Тобиас Зантельман , Макс Тириот , Делрой Линдо , Николай Кински , Джуда Льюис , Глайнис Барбер
--Сюжет:
Джонни — молодой агент ФБР, специализирующийся на работе под прикрытием. Он не раз выходил из самых сложных ситуаций, всегда доделывая свою работу до конца. Его очередным заданием становится проникновение в банду воров. Однако эти люди не обычные грабители: их главным отличием от остальных является увлечение экстремальными видами спорта. Свои умения они используют при каждом новом ограблении, и стать частью их команды очень непросто. Чтобы войти в банду и остановить преступников, Джонни придется доказать, что он такой же как они, а для этого ему не раз предстоит рискнуть собственной жизнью…- Страна: США, Германия, Китай
Продолжительность: 01:53:50

Файл
Кодек: MPEG4/ISO/AVC H.264
Формат: MKV
Качество: BDRip 720p | 60 fps
Видео: 1280 x 534 (2.397) | 59.940 fps | 10.0 Мбит/сек
Аудио 1: AC3 | 5.1 | 48 kHz | 448 kbps | 16 bit | Дубляж |
Аудио 2: AC3 | 5.1 | 48 kHz | 448 kbps | 16 bit | ENG |
Субтитры: RU, ENG

MedifInfo

Видео
Идентификатор : 1
Формат : AVC
Формат/Информация : Advanced Video Codec
Профиль формата : High@L4.1
Параметр CABAC формата : Да
Параметр ReFrames формата : 3 кадра
Идентификатор кодека : V_MPEG4/ISO/AVC
Продолжительность : 1 ч. 53 м.
Вид битрейта : Переменный
Битрейт : 9766 Кбит/сек
Максимальный битрейт : 10000 Кбит/сек
Ширина : 1280 пикселей
Высота : 534 пикселя
Соотношение сторон : 2,40:1
Режим частоты кадров : Постоянный
Частота кадров : 59,880 кадров/сек
Частота кадров в оригинале : 59,940 кадров/сек
Стандарт вещания : PAL
Цветовое пространство : YUV
Субдискретизация насыщенности : 4:2:0
Битовая глубина : 8 бит
Тип развёртки : Прогрессивная
Бит/(Пиксели*Кадры) : 0.239
Размер потока : 7,77 Гбайт (90%)
Заголовок : www.60-fps.org
Язык : English
Default : Да
Forced : Нет
Основные цвета : BT.601 NTSC
Характеристики трансфера : BT.601
Коэффициенты матрицы : BT.601
colour_range : Limited
Аудио #1
Идентификатор : 2
Формат : AC-3
Формат/Информация : Audio Coding 3
Расширение режима : CM (complete main)
Параметр Endianness формата : Big
Идентификатор кодека : A_AC3
Продолжительность : 1 ч. 53 м.
Вид битрейта : Постоянный
Битрейт : 448 Кбит/сек
Каналы : 6 каналов
Расположение каналов : Front: L C R, Side: L R, LFE
Частота : 48,0 КГц
Битовая глубина : 16 бит
Метод сжатия : С потерями
Размер потока : 365 Мбайт (4%)
Заголовок : Дублированный (Лицензия)
Язык : Russian
Default : Да
Forced : Нет
Аудио #2
Идентификатор : 3
Формат : AC-3
Формат/Информация : Audio Coding 3
Расширение режима : CM (complete main)
Параметр Endianness формата : Big
Идентификатор кодека : A_AC3
Продолжительность : 1 ч. 53 м.
Вид битрейта : Постоянный
Битрейт : 448 Кбит/сек
Каналы : 6 каналов
Расположение каналов : Front: L C R, Side: L R, LFE
Частота : 48,0 КГц
Битовая глубина : 16 бит
Метод сжатия : С потерями
Размер потока : 365 Мбайт (4%)
Заголовок : ENG
Язык : English
Default : Нет
Forced : Нет
Текст #1
Идентификатор : 4
Формат : UTF-8
Идентификатор кодека : S_TEXT/UTF8
Идентификатор кодека/Информация : UTF-8 Plain Text
Заголовок : Forced
Язык : Russian
Default : Да
Forced : Нет
Текст #2
Идентификатор : 5
Формат : UTF-8
Идентификатор кодека : S_TEXT/UTF8
Идентификатор кодека/Информация : UTF-8 Plain Text
Заголовок : Full
Язык : Russian
Default : Нет
Forced : Нет
Текст #3
Идентификатор : 6
Формат : UTF-8
Идентификатор кодека : S_TEXT/UTF8
Идентификатор кодека/Информация : UTF-8 Plain Text
Заголовок : Full
Язык : English
Default : Нет
Forced : Нет
Меню
00:00:00.000 : en:Chapter 01
00:10:11.819 : en:Chapter 02
00:21:05.138 : en:Chapter 03
00:29:20.925 : en:Chapter 04
00:42:44.895 : en:Chapter 05
00:50:05.794 : en:Chapter 06
01:03:19.462 : en:Chapter 07
01:12:43.942 : en:Chapter 08
01:20:40.418 : en:Chapter 09
01:27:14.520 : en:Chapter 10
01:32:44.350 : en:Chapter 11
01:39:02.603 : en:Chapter 12
01:53:50.657 : en:Chapter 13

Релиз подготовлен 60 - fps



Последний раз редактировалось: Kryl (2016-03-14 14:16), всего редактировалось 1 раз

[Цитировать]
Haykoo775

Film SUPER Улыбаюсь

[Цитировать]
ENIGMA

Огромное Спасибо!
Фильм Бомба! Также, как и оригинал, аж не вериться, что ремейк удался))

[Цитировать]
RogerJunior

Фильм просто БОМБА! Римейк ОДНОЗНАЧНО УДАЛСЯ!!! за качесвто-низкий поклон!!!Всем советую! Привет

[Цитировать]
drou

масштабные съемки, экстрим сцены, и сюжет, мне понравилось практичиски все, кроме музыкального сопровождения слабовато Улыбаюсь

[Цитировать]
dimon_26rus

в районе 43м 37сек у меня у одного летуны раздваиваются?
да и на протяжении всего фильма лагает.
Это фильм или плеер кривой? (пробовал несколькими - результат тот же)

[Цитировать]
rthana1314

Nice share Подмигиваю
 
Показать сообщения:    

Текущее время: 30-Май 15:58

Часовой пояс: UTC + 3


Вы не можете начинать темы
Вы не можете отвечать на сообщения
Вы не можете редактировать свои сообщения
Вы не можете удалять свои сообщения
Вы не можете голосовать в опросах
Вы не можете прикреплять файлы к сообщениям
Вы не можете скачивать файлы