Название: На грани
Оригинальное название: The Edge
Год выпуска: 1997
Страна: США
Жанр: триллер, драма, приключения
Продолжительность: 01:57:54
Перевод: Профессиональный многоголосый
Субтитры: русские (Полные), английские (Полные)
Режиссер: Ли Тамахори / Lee Tamahori
В ролях: Энтони Хопкинс (Charles Morse), Алек Болдуин (Robert Green), Эль Макферсон (Mickey Morse), Хэролд Перрино (Stephen), медведь Барт (The Bear), Л. К. Джонс (Styles), Кэтлин Уилхойт (Ginny), Дэвид Линдстед (James), Марк Кили (Mechanic), Эли Габэй (Jet Pilot), Ларри Муссер (Amphibian Pilot), Брайан Арнольд (Reporter)-Описание:
Миллиардер Чарльз Морс отправляется со своей молодой женой, супермоделью Микки, на Аляску для фотосъемок. Модный профессиональный фотограф Роберт Грин убедил их, что именно там есть место, которое идеально подходит для съемок. В поисках они улетают намного дальше, чем предполагали.
Их маленький самолет терпит крушение при столкновении с птицами и падает в озеро. Пилот погиб, остальные спаслись... Но как выжить вдали от цивилизации? Чтобы спастись в лесу, полном диких животных, они должны полагаться только друг на друга. До спасения остается недолго... Но Чарльз начинает подозревать свою жену в связи с Робертом.- -Качество: BDRip 1080p
Формат: MKV
Видео кодек: AVC
Аудио кодек:AC3
Видео: AVC, 1920x816 (2.35:1), 14000 kbps, 59,940 fps, 0,149 bpp
Аудио №1: русский / AC3 / 5.1 / 48 kHz / 384 kbps / 16 bit |Многоголосый, закадровый Двадцатый век Фокс СНГ|
Аудио №2: русский / AC3 / 5.1 / 48 kHz / 384 kbps / 16 bit |Многоголосый, закадровый FDV / Супербит / Престиж / Позитив-Мультимедиа|
Аудио №3: английский / AC3 / 5.1 / 48 kHz / 640 kbps / 16 bit
Навигация по главам: есть-

MI

General
Unique ID : 190988851704204574203898443421520634010 (0x8FAF1D67147B4DA1A116AAAC1192209A)
Complete name : A:\1080p 60fps\На грани (1997) 1080p 60fps.mkv
Format : Matroska
Format version : Version 4 / Version 2
File size : 12.7 GiB
Duration : 1h 57mn
Overall bit rate : 15.4 Mbps
Movie name : R.G. HD-Films by Tiberiumsun69 60fps
Encoded date : UTC 2014-12-27 07:39:43
Writing application : mkvmerge v7.4.0 ('Circles') 64bit built on Dec 12 2014 12:19:56
Writing library : libebml v1.3.0 + libmatroska v1.4.1
Attachment : Yes
Video
ID : 1
Format : AVC
Format/Info : Advanced Video Codec
Format profile : High@L4.1
Format settings, CABAC : Yes
Format settings, ReFrames : 4 frames
Codec ID : V_MPEG4/ISO/AVC
Duration : 1h 57mn
Bit rate : 14.0 Mbps
Width : 1 920 pixels
Height : 816 pixels
Display aspect ratio : 2.35:1
Frame rate : 59.940 fps
Color space : YUV
Chroma subsampling : 4:2:0
Bit depth : 8 bits
Scan type : Progressive
Bits/(Pixel*Frame) : 0.149
Stream size : 11.3 GiB (89%)
Title : R.G. HD-Films by Tiberiumsun69 60fps
Writing library : x264 core 142 r2491 24e4fed
Encoding settings : cabac=1 / ref=4 / deblock=1:-1:-1 / analyse=0x3:0 / me=umh / subme=10 / psy=1 / psy_rd=1.00:0.00 / mixed_ref=1 / me_range=32 / chroma_me=0 / trellis=2 / 8x8dct=1 / cqm=0 / deadzone=21,11 / fast_pskip=1 / chroma_qp_offset=-2 / threads=12 / lookahead_threads=1 / sliced_threads=0 / nr=0 / decimate=1 / interlaced=0 / bluray_compat=0 / constrained_intra=0 / bframes=5 / b_pyramid=2 / b_adapt=2 / b_bias=0 / direct=3 / weightb=1 / open_gop=0 / weightp=2 / keyint=250 / keyint_min=59 / scenecut=40 / intra_refresh=0 / rc=2pass / mbtree=0 / bitrate=14000 / ratetol=1.0 / qcomp=0.80 / qpmin=0 / qpmax=69 / qpstep=4 / cplxblur=20.0 / qblur=0.5 / ip_ratio=1.40 / pb_ratio=1.30 / aq=1:1.00
Language : English
Default : Yes
Forced : No
Audio #1
ID : 2
Format : AC-3
Format/Info : Audio Coding 3
Mode extension : CM (complete main)
Codec ID : A_AC3
Duration : 1h 57mn
Bit rate mode : Constant
Bit rate : 384 Kbps
Channel(s) : 6 channels
Channel positions : Front: L C R, Side: L R, LFE
Sampling rate : 48.0 KHz
Bit depth : 16 bits
Compression mode : Lossy
Stream size : 324 MiB (2%)
Title : Многоголосый, закадровый Двадцатый век Фокс СНГ
Language : Russian
Default : Yes
Forced : No
Audio #2
ID : 3
Format : AC-3
Format/Info : Audio Coding 3
Mode extension : CM (complete main)
Codec ID : A_AC3
Duration : 1h 57mn
Bit rate mode : Constant
Bit rate : 384 Kbps
Channel(s) : 6 channels
Channel positions : Front: L C R, Side: L R, LFE
Sampling rate : 48.0 KHz
Bit depth : 16 bits
Compression mode : Lossy
Stream size : 324 MiB (2%)
Title : Многоголосый, закадровый FDV / Супербит / Престиж / Позитив-Мультимедиа
Language : Russian
Default : No
Forced : No
Audio #3
ID : 4
Format : AC-3
Format/Info : Audio Coding 3
Mode extension : CM (complete main)
Codec ID : A_AC3
Duration : 1h 57mn
Bit rate mode : Constant
Bit rate : 640 Kbps
Channel(s) : 6 channels
Channel positions : Front: L C R, Side: L R, LFE
Sampling rate : 48.0 KHz
Bit depth : 16 bits
Compression mode : Lossy
Stream size : 540 MiB (4%)
Title : Оригинал
Language : English
Default : No
Forced : No
Text #1
ID : 5
Format : UTF-8
Codec ID : S_TEXT/UTF8
Codec ID/Info : UTF-8 Plain Text
Title : Полные
Language : Russian
Default : No
Forced : No
Text #2
ID : 6
Format : UTF-8
Codec ID : S_TEXT/UTF8
Codec ID/Info : UTF-8 Plain Text
Title : Полные
Language : English
Default : No
Forced : No
Menu
00:00:00.000 : Main Titles
00:06:36.917 : Knowledge Is Power
00:10:06.043 : Late Night Snack
00:17:13.470 : Developing a Vision
00:21:04.242 : Embarking on an Adventure
00:25:51.738 : Interrupted Flight
00:30:48.659 : In for a Walk
00:35:22.975 : A New Direction
00:39:47.281 : Barely Missing
00:45:02.971 : Pressing On
00:48:44.400 : Square One
00:52:18.990 : From Out of Nowhere
00:58:39.870 : Glimmer of Hope
01:06:00.144 : Face to Face
01:09:48.413 : Safety Circle
01:12:27.155 : The Hunter Hunted
01:22:16.911 : A New Outlook
01:27:15.501 : Vacant Shelter
01:30:19.935 : Disturbing Discovery
01:35:44.593 : Backfire
01:42:15.066 : True Confessions
01:46:57.307 : The Final Journey
01:53:16.811 : End Credits
автор рипа - Tiberiumsun69

Релиз подготовлен 60 - fps

[Цитировать]
Андрей 60

Благородные господа, скачал 90 процентов. Дайте, пожалуйста, возможность докачать

[Цитировать]
Андрей 60

Спасибо! Скачал

[Цитировать]
aleksandr1956

Tiberiumsun69 ВАМ БОЛЬШАЯ БЛАГОДАРНОСТЬ ОТ ПОКЛОННИКОВ ВЫСОКОГО КАЧЕСТВА . ВЫ МОЛОДЕЦ !!!

[Цитировать]
anicko

пожалуйста встаньте на раздачу

[Цитировать]
mordred13

+1, не могу докачать.

[Цитировать]
Kryl

4881+1, не могу докачать.
стал на раздачу .. Фильм

[Цитировать]
Kryl

Скоро половина пользователей в бан уйдет Грущу

[Цитировать]
mordred13

KRYL, ну зачем, не надо пользователей в баню)))
Спасибо за отличный пост! Давно хотел пересмотреть в хорошем качестве!

[Цитировать]
Kryl

4884KRYL, ну зачем, не надо пользователей в баню)))
Спасибо за отличный пост! Давно хотел пересмотреть в хорошем качестве!
Да надоело уже , скачивают и сваливают ...
Мало кто остается на раздаче .

[Цитировать]
mordred13

KRYL, эгоисты)
Я на этой повишу, фильм хороший!
Спасибо, докачал, кстати.

[Цитировать]
04arh

встаньте на раздачу, а то я так неделю буду качать!!!
 
Показать сообщения:    

Текущее время: 10-Дек 19:40

Часовой пояс: UTC + 3


Вы не можете начинать темы
Вы не можете отвечать на сообщения
Вы не можете редактировать свои сообщения
Вы не можете удалять свои сообщения
Вы не можете голосовать в опросах
Вы не можете прикреплять файлы к сообщениям
Вы не можете скачивать файлы