BLACKPINK | WEBRip 1080p | 60 fps ITZY | WEBRip 1080p | 60 fps Jennifer Lopez ft. Iggy Azalea - Booty (2014) Full HD 1080p | 60 fps Britney Spears - I Wanna Go (2011) HDCam 1080p | 60 fps INNA - 10.Minutes (2011) HDTVRip 1080p | 60 fps Britney Spears - Oops! I Did It Again Uncut (2009) HD 1080p | 60 fps Jennifer Lopez - On The Floor ft. Pitbull (2011) HD 1080p | 60 fps Britney Spears - ...Baby One More Time (2009) Full HD 1080p | 60 fps
  1. Longevity:
    5 years 11 months
    Posts:
    2419
    Gender:
    Male
    Mylene Farmer - Timeless 2013 Le Film (2013) BDRip 720p | 60 fps- Информация
    Оригинальное название: Mylene Farmer - Timeless 2013 Le Film
    Год выхода: 2009
    Жанр: Концерт
    Режиссер: Франсуа Ансс
    В ролях: Mylène Farmer
    Страна: Франция
    Продолжительность: 02:06:43
    --Сюжет:
    Поклонники зовут ее не иначе как рыжая Богиня или рыжеволосое Солнце! И даже те, кто не является ярым фанатом этой исполнительницы, сразу понимает, о ком идет речь. Прекрасная и магическая Милен Фармер и ее триумфальное возвращение с новым шоу – Timeless 2013! Шоу Милен Фармер не без оснований признаны одними из самых зрелищных в мире. Kонцерт неподражаемой Милен в концертном зале Берси (Париж) в сентябре 2013 г в рамках нового тура. Милен Фармер - одна из немногих звезд, добившаяся успеха, не исполняя песен на английском языке. Автор текстов своих песен, композитор и постановщик хореографии. Певица, которая после нескольких лет молчания возвращается к еще более полным залам. На этот раз по непредсказуемости Милен превзошла саму себя. С афиши, вместо привычно рыжеволосой Дивы, на нас смотрит голубоглазая выжжено-платиновая блондинка, в которой с трудом узнаются знакомые черты. Это фото, принадлежащее руке Эрве Левиса, вызвало немало пересудов среди толпы, но то, что оно привнесло, возможно, так ожидаемую многими новизну в облик Милен - бесспорный факт-Tracklist
    01. Prologue
    02. Timeless Genesis
    03. A force de…
    04. Comme j’ai mal
    05. C’est une belle journee
    06. Monkey Me
    07. Slipping away (Crier la vie) en duo avec Moby
    08. Elle a dit
    09. Oui mais… Non
    10.Timeless Ballet
    11. Mad World en duo avec Gary Jules
    12. Les Mots en duo avec Gary Jules
    13. Je te dis tout
    14. Et pourtant…
    15. Desenchantee
    16. Bleu Noir
    17. Diabolique mon ange
    18. Sans contrefacon
    19. Maman a tort
    20. Je t’aime melancolie
    21. XXL
    22. A l’ombre
    23. Inseparables
    24. Rever
    25. Endlessly
    - Файл
    Кодек: MPEG4/ISO/AVC/H.264
    Формат: MKV
    Качество: BDRip 720p | 60 fps
    Видео: 1280 x 536 (2.388) | 60.000 fps | 12.0 Мбит/сек
    Аудио: AC-3 | 5.1 | 48 kHz | 640 kbps | 16 bit

    MedifInfo

    Видео
    Идентификатор : 1
    Формат : AVC
    Формат/Информация : Advanced Video Codec
    Профиль формата : High@L4.1
    Параметр CABAC формата : Да
    Параметр ReFrames формата : 3 кадра
    Идентификатор кодека : V_MPEG4/ISO/AVC
    Продолжительность : 2 ч. 6 м.
    Вид битрейта : Переменный
    Битрейт : 11,6 Мбит/сек
    Максимальный битрейт : 12,0 Мбит/сек
    Ширина : 1280 пикселей
    Высота : 536 пикселей
    Соотношение сторон : 2,40:1
    Режим частоты кадров : Постоянный
    Частота кадров : 60,000 кадров/сек
    Стандарт вещания : PAL
    Цветовое пространство : YUV
    Субдискретизация насыщенности : 4:2:0
    Битовая глубина : 8 бит
    Тип развёртки : Прогрессивная
    Бит/(Пиксели*Кадры) : 0.282
    Размер потока : 10,3 Гбайт (93%)
    Заголовок : www.60-fps.org
    Язык : English
    Default : Да
    Forced : Нет
    Основные цвета : BT.601 NTSC
    Характеристики трансфера : BT.601
    Коэффициенты матрицы : BT.601
    colour_range : Limited
    Аудио
    Идентификатор : 2
    Формат : AC-3
    Формат/Информация : Audio Coding 3
    Расширение режима : CM (complete main)
    Параметр Endianness формата : Big
    Идентификатор кодека : A_AC3
    Продолжительность : 2 ч. 6 м.
    Вид битрейта : Постоянный
    Битрейт : 640 Кбит/сек
    Каналы : 6 каналов
    Расположение каналов : Front: L C R, Side: L R, LFE
    Частота : 48,0 КГц
    Битовая глубина : 16 бит
    Метод сжатия : С потерями
    Размер потока : 580 Мбайт (5%)
    Default : Да
    Forced : Нет

    Release was prepared by 60 - fps



You cannot post new topics in this forum
You cannot reply to topics in this forum
You cannot edit your posts in this forum
You cannot delete your posts in this forum
You cannot vote in polls in this forum
You cannot attach files in this forum
You cannot download files in this forum