BLACKPINK | WEBRip 1080p | 60 fps Rammstein (БЕЗ ЦЕНЗУРЫ)| WEBRip 1080p | 60 fps Britney Spears - Oops! I Did It Again Uncut (2009) HD 1080p | 60 fps Luis Fonsi - Despacito ft. Daddy Yankee (2017) WEBRip 1080p | 60 fps Evanescence - Synthesis Live (2018) BDRip 1080p | 60 fps Britney Spears - Toxic (2004) HDTVRip 1080p | 60 fps Dan Balan - Chica Bomb (2010) WEBRip 1080p | 60 fps Jennifer Lopez ft. Iggy Azalea - Booty (2014) Full HD 1080p | 60 fps
  1. Longevity:
    5 years 9 months
    Posts:
    2419
    Gender:
    Male
    -Mylene Farmer - Timeless 2013 Le Film (2013) BDRip 1080p | 60 fps- Информация
    Оригинальное название: Mylene Farmer - Timeless 2013 Le Film
    Год выхода: 2009
    Жанр: Концерт
    Режиссер: Франсуа Ансс
    В ролях: Mylène Farmer
    Страна: Франция
    Продолжительность: 02:06:43
    --Сюжет:
    Поклонники зовут ее не иначе как рыжая Богиня или рыжеволосое Солнце! И даже те, кто не является ярым фанатом этой исполнительницы, сразу понимает, о ком идет речь. Прекрасная и магическая Милен Фармер и ее триумфальное возвращение с новым шоу – Timeless 2013! Шоу Милен Фармер не без оснований признаны одними из самых зрелищных в мире. Kонцерт неподражаемой Милен в концертном зале Берси (Париж) в сентябре 2013 г в рамках нового тура. Милен Фармер - одна из немногих звезд, добившаяся успеха, не исполняя песен на английском языке. Автор текстов своих песен, композитор и постановщик хореографии. Певица, которая после нескольких лет молчания возвращается к еще более полным залам. На этот раз по непредсказуемости Милен превзошла саму себя. С афиши, вместо привычно рыжеволосой Дивы, на нас смотрит голубоглазая выжжено-платиновая блондинка, в которой с трудом узнаются знакомые черты. Это фото, принадлежащее руке Эрве Левиса, вызвало немало пересудов среди толпы, но то, что оно привнесло, возможно, так ожидаемую многими новизну в облик Милен - бесспорный факт-Tracklist
    01. Prologue
    02. Timeless Genesis
    03. A force de…
    04. Comme j’ai mal
    05. C’est une belle journee
    06. Monkey Me
    07. Slipping away (Crier la vie) en duo avec Moby
    08. Elle a dit
    09. Oui mais… Non
    10.Timeless Ballet
    11. Mad World en duo avec Gary Jules
    12. Les Mots en duo avec Gary Jules
    13. Je te dis tout
    14. Et pourtant…
    15. Desenchantee
    16. Bleu Noir
    17. Diabolique mon ange
    18. Sans contrefacon
    19. Maman a tort
    20. Je t’aime melancolie
    21. XXL
    22. A l’ombre
    23. Inseparables
    24. Rever
    25. Endlessly
    - Файл
    Кодек: MPEG4/ISO/AVC/H.264
    Формат: MKV
    Качество: BDRip 1080p | 60 fps
    Видео: 1920 x 804 (2.388) | 60.000 fps | 25.0 Мбит/сек
    Аудио: DTS-HD MA | 5.1 | 96 kHz | 8866 kbps | 24 bit

    MedifInfo

    Видео
    Идентификатор : 1
    Формат : AVC
    Формат/Информация : Advanced Video Codec
    Профиль формата : High@L4.1
    Параметр CABAC формата : Да
    Параметр ReFrames формата : 5 кадров
    Идентификатор кодека : V_MPEG4/ISO/AVC
    Продолжительность : 2 ч. 6 м.
    Битрейт : 31,7 Мбит/сек
    Номинальный битрейт : 25,0 Мбит/сек
    Ширина : 1920 пикселей
    Высота : 804 пикселя
    Соотношение сторон : 2,40:1
    Режим частоты кадров : Постоянный
    Частота кадров : 60,000 кадров/сек
    Цветовое пространство : YUV
    Субдискретизация насыщенности : 4:2:0
    Битовая глубина : 8 бит
    Тип развёртки : Прогрессивная
    Бит/(Пиксели*Кадры) : 0.342
    Размер потока : 28,0 Гбайт (94%)
    Заголовок : www.60-fps.org
    Библиотека кодирования : x264 core 148 r2638 7599210
    Настройки программы : cabac=1 / ref=5 / deblock=1:-3:-3 / analyse=0x3:0x113 / me=umh / subme=8 / psy=1 / psy_rd=1.00:0.25 / mixed_ref=1 / me_range=32 / chroma_me=1 / trellis=1 / 8x8dct=1 / cqm=0 / deadzone=6,6 / fast_pskip=1 / chroma_qp_offset=-4 / threads=12 / lookahead_threads=2 / sliced_threads=0 / nr=0 / decimate=0 / interlaced=0 / bluray_compat=0 / constrained_intra=0 / bframes=3 / b_pyramid=2 / b_adapt=2 / b_bias=0 / direct=3 / weightb=1 / open_gop=0 / weightp=2 / keyint=600 / keyint_min=60 / scenecut=40 / intra_refresh=0 / rc_lookahead=50 / rc=2pass / mbtree=1 / bitrate=24999 / ratetol=1.0 / qcomp=0.80 / qpmin=0 / qpmax=69 / qpstep=4 / cplxblur=20.0 / qblur=0.5 / vbv_maxrate=62500 / vbv_bufsize=78125 / nal_hrd=none / filler=0 / ip_ratio=1.10 / aq=1:0.50
    Default : Да
    Forced : Нет
    Аудио
    Идентификатор : 2
    Формат : DTS
    Формат/Информация : Digital Theater Systems
    Профиль формата : 96/24 / Core
    Режим : 16
    Параметр Endianness формата : Big
    Идентификатор кодека : A_DTS
    Продолжительность : 2 ч. 6 м.
    Вид битрейта : Постоянный
    Битрейт : 1509 Кбит/сек
    Каналы : 6 каналов
    Расположение каналов : Front: L C R, Side: L R, LFE
    Частота : 96,0 КГц / 48,0 КГц
    Битовая глубина : 24 бит
    Метод сжатия : С потерями
    Размер потока : 1,34 Гбайт (4%)
    Заголовок : DTS-HD Master Audio /5.1/ 96 kHz / 8866 kbps / 24-bit
    Default : Да
    Forced : Нет

    Release was prepared by 60 - fps

  2. Longevity:
    2 years 4 months
    Posts:
    8
    Gender:
    Male
    Здравствуйте.
    Раздающие бывают на данной раздаче?
    24-Mar-2018 19:49 (after 1 year 4 months)
  3. Longevity:
    2 years 4 months
    Posts:
    8
    Gender:
    Male
    Предыдущее сообщение уже больше недели находится в стадии проверки модератором. Это нормально? Тут есть кто живой?
    Я всего лишь хотел попросить, чтобы встали на раздачу.
    Пожалуйста.
    01-Apr-2018 18:49 (after 7 days)
  4. Longevity:
    3 years 11 months
    Posts:
    1452
    Gender:
    Male
    9535Предыдущее сообщение уже больше недели находится в стадии проверки модератором. Это нормально? Тут есть кто живой?
    Я всего лишь хотел попросить, чтобы встали на раздачу.
    Пожалуйста.
    я думаю сегодня вечером станут на раздачу... !
    01-Apr-2018 18:58 (after 8 minutes)
  5. Longevity:
    2 years 4 months
    Posts:
    8
    Gender:
    Male
    я думаю сегодня вечером станут на раздачу... !
    спасибо огромное, процесс пошел )
    02-Apr-2018 18:25 (after 23 hours)
  6. Longevity:
    3 years 11 months
    Posts:
    1452
    Gender:
    Male
    Я сейчас занимаюсь закакупкой новых дисков,скоро их настрою в серваках и со временем смогу скачать абсолютно весь контент этого сайта,ну и соответственно буду на раздаче 24/7... !
    02-Apr-2018 19:07 (after 41 minute)
  7. Longevity:
    2 years 4 months
    Posts:
    8
    Gender:
    Male
    Зашел специально сказать огромное спасибо создателю релиза/автору раздачи, это просто чудо...наслаждение концертом просто неимоверное.
    11-Jan-2019 20:50 (after 9 months 9 days)
  8. Longevity:
    3 years 2 months
    Posts:
    1
    Gender:
    Unknown
    Пожалуйста, дайте раздачу кто-нибудь!
    Спасибо.
    31-Jul-2020 11:15 (after 1 year 4 months)


You cannot post new topics in this forum
You cannot reply to topics in this forum
You cannot edit your posts in this forum
You cannot delete your posts in this forum
You cannot vote in polls in this forum
You cannot attach files in this forum
You cannot download files in this forum