Rammstein (БЕЗ ЦЕНЗУРЫ)| WEBRip 1080p | 60 fps Britney Spears - Oops! I Did It Again Uncut (2009) HD 1080p | 60 fps BLACKPINK | WEBRip 1080p | 60 fps Evanescence - Synthesis Live (2018) BDRip 1080p | 60 fps Jennifer Lopez ft. Iggy Azalea - Booty (2014) Full HD 1080p | 60 fps Britney Spears - Toxic (2004) HDTVRip 1080p | 60 fps Lady Gaga - Poker Face (2009) Full HD 1080p | 60 fps ITZY | WEBRip 1080p | 60 fps
  1. Longevity:
    5 years 11 months
    Posts:
    2419
    Gender:
    Male
    Mylene Farmer - Stade de France (2009) BDRip 720p | 60 fps- Информация
    Оригинальное название: Mylene Farmer - Stade de France
    Год выхода: 2009
    Жанр: Концерт
    Режиссер: Франсуа Ансс
    Продюсер: Stuffed Monkey
    В ролях: Mylene Farmer
    --Сюжет:
    Грандиозное по масштабности концертное выступление французской поп дивы Милен Фармер прошедшее в Париже на стадионе Stade de France. Два завершающих турне концерта и 160 тысяч человек, которые пришли посмотреть на шоу с по настоящему голливудским размахом спецэффектов и с присуще французскому темпераменту накалу чувств. Огромная сцена располагающая на себе тонны света, звука и декораций. Звучание самых лучших песен за более чем 25 лет карьеры сопровождающихся великолепно поставленной хореографией и полной открытостью чувств самой скрытной французской певицы. Слезы и радость Милен Фармер вызывающие бурю эмоций в ответ от предано любящих ее поклонников.-Tracklist
    01. Avant la lumiere
    02. D`entre les morts
    03. Paradis inanime
    04. L`ame-stram-gram
    05. Je m`ennuie
    06. Outro Haka "Je m`ennuie"
    07. Appelle mon numero
    08. XXL
    09. California
    10. Pourvu qu`elles soient douces
    11. Point de suture
    12. Nous souviendrons nous
    13. Rever
    14. Laisse le vent emporter tout
    15. Ainsi soit je...
    16. Interlude Avant que l'ombre
    17. Libertine
    18. Sans contrefacon
    19. L`instant X
    20. Fuck Them All
    21. Degeneration
    22. C'est dans l'air
    23. Desenchantee
    24. Generique fin

    Страна: Франция
    Продолжительность: 02:19:22

    Файл
    Кодек: MPEG4/ISO/AVC/H.264
    Формат: MKV
    Качество: BDRip 720p | 60 fps
    Видео: 1280 x 720 (1.778) | 60.000 fps | 12.0 Мбит/сек
    Аудио 1: AC-3 | 5.1 | 48 kHz | 640 kbps | 16 bit
    Аудио 2: AC-3 | 2.0 | 48 kHz | 640 kbps | 16 bit

    MedifInfo

    Видео
    Идентификатор : 1
    Формат : AVC
    Формат/Информация : Advanced Video Codec
    Профиль формата : High@L4.1
    Параметр CABAC формата : Да
    Параметр ReFrames формата : 3 кадра
    Параметр GOP формата : M=3, N=72
    Идентификатор кодека : V_MPEG4/ISO/AVC
    Продолжительность : 2 ч. 19 м.
    Вид битрейта : Переменный
    Битрейт : 11,7 Мбит/сек
    Максимальный битрейт : 12,0 Мбит/сек
    Ширина : 1280 пикселей
    Высота : 720 пикселей
    Соотношение сторон : 16:9
    Режим частоты кадров : Постоянный
    Частота кадров : 60,000 кадров/сек
    Стандарт вещания : PAL
    Цветовое пространство : YUV
    Субдискретизация насыщенности : 4:2:0
    Битовая глубина : 8 бит
    Тип развёртки : Прогрессивная
    Бит/(Пиксели*Кадры) : 0.211
    Размер потока : 11,4 Гбайт (88%)
    Заголовок : www.60-fps.org
    Язык : English
    Default : Да
    Forced : Нет
    Основные цвета : BT.709
    Характеристики трансфера : BT.709
    Коэффициенты матрицы : BT.709
    colour_range : Limited
    Аудио #1
    Идентификатор : 2
    Формат : AC-3
    Формат/Информация : Audio Coding 3
    Расширение режима : CM (complete main)
    Параметр Endianness формата : Big
    Идентификатор кодека : A_AC3
    Продолжительность : 2 ч. 19 м.
    Вид битрейта : Постоянный
    Битрейт : 640 Кбит/сек
    Каналы : 6 каналов
    Расположение каналов : Front: L C R, Side: L R, LFE
    Частота : 48,0 КГц
    Битовая глубина : 16 бит
    Метод сжатия : С потерями
    Размер потока : 638 Мбайт (5%)
    Заголовок : AC-3 | 5.1 | 48 kHz | 640 kbps | 16 bit
    Default : Да
    Forced : Нет
    Аудио #2
    Идентификатор : 3
    Формат : AC-3
    Формат/Информация : Audio Coding 3
    Расширение режима : CM (complete main)
    Параметр Endianness формата : Big
    Идентификатор кодека : A_AC3
    Продолжительность : 2 ч. 19 м.
    Вид битрейта : Постоянный
    Битрейт : 640 Кбит/сек
    Каналы : 2 канала
    Расположение каналов : Front: L R
    Частота : 48,0 КГц
    Битовая глубина : 16 бит
    Метод сжатия : С потерями
    Размер потока : 638 Мбайт (5%)
    Заголовок : AC-3 | 2.0 | 48 kHz | 640 kbps | 16 bit
    Default : Нет
    Forced : Нет

    Release was prepared by 60 - fps

  2. Longevity:
    5 years 8 months
    Posts:
    12
    Gender:
    Male
    Шикарная Женщина!
    07-Nov-2016 14:02 (after 18 hours)
  3. Longevity:
    1 year 3 months
    Posts:
    1
    Gender:
    Unknown
    раздачи нет
    27-Jun-2019 12:39 (after 2 years 7 months)


You cannot post new topics in this forum
You cannot reply to topics in this forum
You cannot edit your posts in this forum
You cannot delete your posts in this forum
You cannot vote in polls in this forum
You cannot attach files in this forum
You cannot download files in this forum