-Название: Мы были солдатами
Оригинальное название: We Were Soldiers
Год выпуска: 2002
Страна: США, Германия
Жанр: боевик, драма, военный, история
Продолжительность: 02:18:31
Перевод: Дубляж
Субтитры: русские (Полные), английские (Полные)-Режиссер: Рэндалл Уоллес / Randall Wallace-В ролях: Мэл Гибсон (Lt. Col. Hal Moore), Мэделин Стоу (Julie Moore), Грег Киннер (Maj. Bruce «Snake» Crandall), Сэм Эллиотт (Sgt. Maj. Basil Plumley), Крис Клейн (2nd Lt. Jack Geoghegan), Кери Рассел (Barbara Geoghegan), Барри Пеппер (Joe Galloway), Дон Дуонг (Lt. Col. Nguyen Huu An), Райан Херст (Sgt. Ernie Savage), Роберт Бэгнелл (1st Lt. Charlie Hastings), Марк Блукас (2nd Lt. Henry Herrick), Джош Догерти (Sp4 Robert Ouellette)-Описание:
Рассказ о героях и их героизме, которых незаслуженно забыли при сражении под Ай Дрэнгом. В первом крупном сражении между американскими и вьетконговскими войсками 395 американцев оказалось в окружении, причем враг значительно превосходил их по численности. События происходили с 23 октября по 26 ноября 1965 года.-Рейтинг

imdb.com: 7.10 (81 499)
MPAA: R - Лицам до 17 лет обязательно присутствие взрослого
Качество: BDRip 1080p / 60 FPS
Формат: MKV
Видео кодек: AVC
Аудио кодек:AC3
Видео: AVC, 1920x816, 14000 kbps, 59,940 fps
Аудио №1: русский / AC3 / 5.1 / 48 kHz / 448 kbps / 16 bit |Дубляж|
Аудио №2: русский / AC3 / 5.1 / 48 kHz / 448 kbps / 16 bit |Многоголосый, закадровый|
Аудио №3: английский / AC3 / 5.1 / 48 kHz / 640 kbps / 16 bit
Навигация по главам: есть- -

MI

General
Unique ID : 216798723753018177504282237006364711559 (0xA319EA57877034FFBE5B13AACE569A87)
Complete name : A:1080p 60fpsМы были солдатами 1080p 60fps.mkv
Format : Matroska
Format version : Version 4 / Version 2
File size : 15.0 GiB
Duration : 2h 18mn
Overall bit rate : 15.5 Mbps
Encoded date : UTC 2014-10-24 11:45:24
Writing application : mkvmerge v6.9.1 ('Blue Panther') 64bit built on Apr 18 2014 18:23:38
Writing library : libebml v1.3.0 + libmatroska v1.4.1
Video
ID : 1
Format : AVC
Format/Info : Advanced Video Codec
Format profile : High@L4.1
Format settings, CABAC : Yes
Format settings, ReFrames : 4 frames
Codec ID : V_MPEG4/ISO/AVC
Duration : 2h 18mn
Bit rate : 14.0 Mbps
Width : 1 920 pixels
Height : 816 pixels
Display aspect ratio : 2.35:1
Frame rate : 59.940 fps
Color space : YUV
Chroma subsampling : 4:2:0
Bit depth : 8 bits
Scan type : Progressive
Bits/(Pixel*Frame) : 0.149
Stream size : 13.2 GiB (88%)
Writing library : x264 core 130 r2273 b3065e6
Encoding settings : cabac=1 / ref=4 / deblock=1:-1:-1 / analyse=0x3:0 / me=umh / subme=9 / psy=1 / psy_rd=1.00:0.00 / mixed_ref=1 / me_range=44 / chroma_me=0 / trellis=2 / 8x8dct=1 / cqm=0 / deadzone=21,11 / fast_pskip=0 / chroma_qp_offset=-2 / threads=12 / lookahead_threads=1 / sliced_threads=0 / nr=0 / decimate=0 / interlaced=0 / bluray_compat=0 / constrained_intra=0 / bframes=5 / b_pyramid=2 / b_adapt=2 / b_bias=0 / direct=3 / weightb=1 / open_gop=0 / weightp=2 / keyint=250 / keyint_min=59 / scenecut=40 / intra_refresh=0 / rc_lookahead=60 / rc=2pass / mbtree=1 / bitrate=14000 / ratetol=1.0 / qcomp=0.80 / qpmin=0 / qpmax=69 / qpstep=4 / cplxblur=20.0 / qblur=0.5 / ip_ratio=1.40 / aq=1:0.80
Language : English
Default : Yes
Forced : No
Audio #1
ID : 2
Format : AC-3
Format/Info : Audio Coding 3
Mode extension : CM (complete main)
Codec ID : A_AC3
Duration : 2h 18mn
Bit rate mode : Constant
Bit rate : 448 Kbps
Channel(s) : 6 channels
Channel positions : Front: L C R, Side: L R, LFE
Sampling rate : 48.0 KHz
Bit depth : 16 bits
Compression mode : Lossy
Stream size : 444 MiB (3%)
Title : Дубляж
Language : Russian
Default : Yes
Forced : No
Audio #2
ID : 3
Format : AC-3
Format/Info : Audio Coding 3
Mode extension : CM (complete main)
Codec ID : A_AC3
Duration : 2h 18mn
Bit rate mode : Constant
Bit rate : 448 Kbps
Channel(s) : 6 channels
Channel positions : Front: L C R, Side: L R, LFE
Sampling rate : 48.0 KHz
Bit depth : 16 bits
Compression mode : Lossy
Stream size : 444 MiB (3%)
Title : Многоголосый, закадровый
Language : Russian
Default : No
Forced : No
Audio #3
ID : 4
Format : AC-3
Format/Info : Audio Coding 3
Mode extension : CM (complete main)
Codec ID : A_AC3
Duration : 2h 18mn
Bit rate mode : Constant
Bit rate : 640 Kbps
Channel(s) : 6 channels
Channel positions : Front: L C R, Side: L R, LFE
Sampling rate : 48.0 KHz
Bit depth : 16 bits
Compression mode : Lossy
Stream size : 634 MiB (4%)
Title : Оригинал
Language : English
Default : No
Forced : No
Text #1
ID : 5
Format : UTF-8
Codec ID : S_TEXT/UTF8
Codec ID/Info : UTF-8 Plain Text
Title : Полные
Language : Russian
Default : No
Forced : No
Text #2
ID : 6
Format : UTF-8
Codec ID : S_TEXT/UTF8
Codec ID/Info : UTF-8 Plain Text
Title : Полные
Language : English
Default : No
Forced : No
Menu
00:00:00.000 : en:Chapter 1
00:06:54.163 : en:Chapter 2
00:12:59.528 : en:Chapter 3
00:19:26.373 : en:Chapter 4
00:27:33.526 : en:Chapter 5
00:35:14.362 : en:Chapter 6
00:40:34.432 : en:Chapter 7
00:51:24.790 : en:Chapter 8
00:59:11.589 : en:Chapter 9
01:07:07.690 : en:Chapter 10
01:14:44.438 : en:Chapter 11
01:20:58.353 : en:Chapter 12
01:26:44.324 : en:Chapter 13
01:34:32.667 : en:Chapter 14
01:43:40.631 : en:Chapter 15
01:49:02.619 : en:Chapter 16
01:53:14.579 : en:Chapter 17
01:58:13.503 : en:Chapter 18
02:06:17.319 : en:Chapter 19
02:11:50.569 : en:Chapter 20

Скриншоты



Последний раз редактировалось: bot (2016-03-06 17:10), всего редактировалось 2 раз(а)

[Цитировать]
kiryandr

ЗА ЭТОТ ФИЛЬМ, В ТАКОМ КАЧЕСТВЕ,ОГРОМНОЕ СПАСИБО!!!
 
Показать сообщения:    

Текущее время: 11-Дек 07:08

Часовой пояс: UTC + 3


Вы не можете начинать темы
Вы не можете отвечать на сообщения
Вы не можете редактировать свои сообщения
Вы не можете удалять свои сообщения
Вы не можете голосовать в опросах
Вы не можете прикреплять файлы к сообщениям
Вы не можете скачивать файлы