Музыкальный камин / HDScape: Fireplace - Visions Of Tranquility- Информация
Название: Музыкальный камин
Оригинальное название: Fireplace - Visions Of Tranquility
Год выхода: 2008
Жанр: Документальный, Релакс, Музыка
Продолжительность: 01:17:39

Сюжет:
На дворе зима, и вы надеетесь согреться, чтобы избежать морозного холода снаружи, или вы хотите, провести уютный вечер с семьей или с девушкой. Камин с расслабляющей релаксирующей музыкой, лучшее что можно представить, с реальным огнем и потрескивающими поленьями. Его визуальная привлекательность в высоком разрешении создает в вашем доме уютную атмосферу. Это также отличный способ, чтобы добавить ощущение подлинного комфорта любого дома или квартиры, кафе или в расслабляющей вечеринки в бане. Камин снят на пленку и предстанет перед вами в высоком разрешении, которые приносят все богатые оттенки и танцующие тени реальных горящих поленьев.
Файл
Кодек: MPEG4/ISO/AVC H.264
Формат: MKV
Качество: BDRip 1080p | 60 fps
Видео: 60.000 | 60.000 fps | 6.0 Мбит/сек
Аудио 1: AAC LC | 2.0 | 44.1 kHz | 220 kbps | 16 bit | музыка релакс и звук камина |
Аудио 2: AC3 | 2.0 | 48 kHz | 235 kbps | 16 bit | звук камина |
Аудио 3: AC3 | 5.1 | 48 kHz | 640 kbps | 16 bit | классическая музыка |
Аудио 4: AC3 | 5.1 | 48 kHz | 640 kbps | 16 bit | рождественская музыка |

MedifInfo

Видео
Идентификатор : 1
Формат : AVC
Формат/Информация : Advanced Video Codec
Профиль формата : Main@L4.1
Параметр CABAC формата : Да
Параметр ReFrames формата : 4 кадра
Идентификатор кодека : V_MPEG4/ISO/AVC
Продолжительность : 1 ч. 17 м.
Вид битрейта : Переменный
Битрейт : 6000 Кбит/сек
Максимальный битрейт : 20,0 Мбит/сек
Ширина : 1920 пикселей
Высота : 1080 пикселей
Соотношение сторон : 16:9
Режим частоты кадров : Постоянный
Частота кадров : 60,000 кадров/сек
Стандарт вещания : NTSC
Цветовое пространство : YUV
Субдискретизация насыщенности : 4:2:0
Битовая глубина : 8 бит
Тип развёртки : Прогрессивная
Бит/(Пиксели*Кадры) : 0.048
Размер потока : 3,23 Гбайт (77%)
Библиотека кодирования : x264 core 148 r2638
Настройки программы : cabac=1 / ref=5 / deblock=1:-2:-2 / analyse=0x1:0x131 / me=umh / subme=6 / psy=1 / psy_rd=1.00:0.00 / mixed_ref=0 / me_range=16 / chroma_me=1 / trellis=2 / 8x8dct=0 / cqm=0 / deadzone=21,11 / fast_pskip=0 / chroma_qp_offset=-2 / threads=6 / lookahead_threads=1 / sliced_threads=0 / nr=0 / decimate=1 / interlaced=0 / bluray_compat=0 / constrained_intra=0 / bframes=6 / b_pyramid=1 / b_adapt=1 / b_bias=0 / direct=2 / weightb=1 / open_gop=1 / weightp=2 / keyint=600 / keyint_min=61 / scenecut=40 / intra_refresh=0 / rc_lookahead=40 / rc=abr / mbtree=1 / bitrate=6000 / ratetol=1.0 / qcomp=0.80 / qpmin=10 / qpmax=69 / qpstep=4 / vbv_maxrate=20000 / vbv_bufsize=24000 / nal_hrd=vbr / filler=0 / ip_ratio=1.40 / aq=1:0.90
Default : Да
Forced : Нет
Цветовой диапазон : Limited
Основные цвета : BT.709
Характеристики трансфера : BT.709
Коэффициенты матрицы : BT.709
Аудио #1
Идентификатор : 2
Формат : AAC
Формат/Информация : Advanced Audio Codec
Профиль формата : LC
Идентификатор кодека : A_AAC
Продолжительность : 1 ч. 17 м.
Битрейт : 220 Кбит/сек
Каналы : 2 канала
Расположение каналов : Front: L R
Частота : 44,1 КГц
Частота кадров : 43,066 кадра/сек (1024 spf)
Метод сжатия : С потерями
Размер потока : 122 Мбайт (3%)
Заголовок : сборка
Язык : Russian
Default : Нет
Forced : Нет
Аудио #2
Идентификатор : 3
Формат : AC-3
Формат/Информация : Audio Coding 3
Расширение режима : CM (complete main)
Параметр Endianness формата : Big
Идентификатор кодека : A_AC3
Продолжительность : 1 ч. 17 м.
Вид битрейта : Постоянный
Битрейт : 192 Кбит/сек
Каналы : 2 канала
Расположение каналов : Front: L R
Частота : 48,0 КГц
Частота кадров : 31,250 кадров/сек (1536 spf)
Метод сжатия : С потерями
Размер потока : 131 Мбайт (3%)
Язык : English
Default : Да
Forced : Нет
Аудио #3
Идентификатор : 4
Формат : AC-3
Формат/Информация : Audio Coding 3
Расширение режима : CM (complete main)
Параметр Endianness формата : Big
Идентификатор кодека : A_AC3
Продолжительность : 1 ч. 17 м.
Вид битрейта : Постоянный
Битрейт : 640 Кбит/сек
Каналы : 6 каналов
Расположение каналов : Front: L C R, Side: L R, LFE
Частота : 48,0 КГц
Частота кадров : 31,250 кадров/сек (1536 spf)
Метод сжатия : С потерями
Размер потока : 356 Мбайт (8%)
Язык : English
Default : Нет
Forced : Нет
Аудио #4
Идентификатор : 5
Формат : AC-3
Формат/Информация : Audio Coding 3
Расширение режима : CM (complete main)
Параметр Endianness формата : Big
Идентификатор кодека : A_AC3
Продолжительность : 1 ч. 17 м.
Вид битрейта : Постоянный
Битрейт : 640 Кбит/сек
Каналы : 6 каналов
Расположение каналов : Front: L C R, Side: L R, LFE
Частота : 48,0 КГц
Частота кадров : 31,250 кадров/сек (1536 spf)
Метод сжатия : С потерями
Размер потока : 356 Мбайт (8%)
Язык : English
Default : Нет
Forced : Нет
 
Показать сообщения:    

Текущее время: 03-Дек 16:41

Часовой пояс: UTC + 3


Вы не можете начинать темы
Вы не можете отвечать на сообщения
Вы не можете редактировать свои сообщения
Вы не можете удалять свои сообщения
Вы не можете голосовать в опросах
Вы не можете прикреплять файлы к сообщениям
Вы не можете скачивать файлы