Тор: Рагнарёк / Thor: Ragnarok (2017) BDRip 1080p | 60 fps Стражи Галактики. Часть 2 / Guardians of the Galaxy Vol. 2 (2017) BDRip 1080p | 60 fps Мстители: Эра Альтрона / Avengers: Age of Ultron (2015) BDRip 1080p | 60 fps Валериан и город тысячи планет / Valerian and the City of a Thousand Planets (2017) BDRip 1080p | 60 fps Человек-паук: Возвращение домой / Spider-Man: Homecoming (2017) BDRip 1080p | 60 fps Первый мститель: Противостояние / Captain America: Civil War (2016) BDRip 1080p | 60 fps Доктор Стрэндж / Doctor Strange (2016) BDRip 1080p | 60 fps Мстители / The Avengers (2012) BDRip 720p | 60 fps
  1. Стаж:
    1 год 9 месяцев
    Сообщений:
    476
    Пол:
    Мужской
    «Случайное знакомство с `лучшим другом`»- Информация
    Название: Муравьи в штанах
    Оригинальное название: Harte Jungs
    Год выхода: 2000
    Жанр: фэнтези, мелодрама, комедия
    Режиссер: Марк Ротемунд
    Сценарий: Гранц Хенман, Альберто Моравиа
    Продюсер: Бернд Айхингер, Мартин Московиц, Кристоф Мюллер
    В ролях: Тобиас Шенке,Аксель Штайн,Луиза Хельм,Мина Тандер,Бьёрн Киршниок,Ники Кантор,Том Ласс,Саша Хейманс,Сисси Перлингер,Штефан Юргенс
    --Сюжет:
    Фло — не совсем нормальный подросток: в то время, как все его приятели думают только о сексе, он даже не может произнести слово «С — Е — К — С».
    Но все полностью меняется, когда однажды утром Фло просыпается от странного зова. Это его «лучший друг», возбужденный в первый раз, начинает разговаривать с ним. Он заявляет, что Фло жестоко пренебрегал им в течение 15 лет, и что уже пора освободить его и начать действовать.
    Жалкое существование должно закончиться, а это означает, что все теперь будет абсолютно по-другому.
    - Страна: Германия
    Продолжительность: 01:19:50

    Файл
    Кодек: MPEG4/ISO/AVC/H.264
    Формат: MKV
    Качество: BDRip 1080p | 60 fps
    Видео: 1280 x 720 (1.778) | 60.000 fps | 8.0 Мбит/сек
    Аудио 1: AC-3| 2.0 | 48 kHz | 192 Кбит/сек | 16 bit | Многоголосный (Закадровый) |
    Аудио 2: AC-3| 5.1 | 48 kHz | 448 Кбит/сек | 16 bit | Оригинал
    Субтитры:

    MedifInfo

    Видео
    Идентификатор : 1
    Формат : AVC
    Формат/Информация : Advanced Video Codec
    Профиль формата : High@L4.1
    Параметр CABAC формата : Да
    Параметр ReFrames формата : 5 кадров
    Идентификатор кодека : V_MPEG4/ISO/AVC
    Продолжительность : 1 ч. 19 м.
    Битрейт : 8000 Кбит/сек
    Ширина : 1280 пикселей
    Высота : 720 пикселей
    Соотношение сторон : 16:9
    Режим частоты кадров : Постоянный
    Частота кадров : 60,000 кадров/сек
    Цветовое пространство : YUV
    Субдискретизация насыщенности : 4:2:0
    Битовая глубина : 8 бит
    Тип развёртки : Прогрессивная
    Бит/(Пиксели*Кадры) : 0.145
    Размер потока : 4,46 Гбайт (93%)
    Заголовок : Талямба: 60-fps.org
    Библиотека кодирования : x264 core 146 r2538 121396c
    Настройки программы : cabac=1 / ref=5 / deblock=1:-2:-2 / analyse=0x3:0x113 / me=umh / subme=8 / psy=1 / psy_rd=1.00:0.25 / mixed_ref=1 / me_range=32 / chroma_me=1 / trellis=1 / 8x8dct=1 / cqm=0 / deadzone=6,6 / fast_pskip=1 / chroma_qp_offset=-4 / threads=12 / lookahead_threads=2 / sliced_threads=0 / nr=0 / decimate=0 / interlaced=0 / bluray_compat=0 / constrained_intra=0 / bframes=3 / b_pyramid=2 / b_adapt=2 / b_bias=0 / direct=3 / weightb=1 / open_gop=0 / weightp=2 / keyint=600 / keyint_min=60 / scenecut=40 / intra_refresh=0 / rc_lookahead=50 / rc=2pass / mbtree=1 / bitrate=8000 / ratetol=1.0 / qcomp=0.80 / qpmin=0 / qpmax=69 / qpstep=4 / cplxblur=20.0 / qblur=0.5 / vbv_maxrate=50000 / vbv_bufsize=50000 / nal_hrd=none / filler=0 / ip_ratio=1.10 / aq=1:0.50
    Язык : English
    Default : Да
    Forced : Нет
    Аудио #1
    Идентификатор : 2
    Формат : AC-3
    Формат/Информация : Audio Coding 3
    Расширение режима : CM (complete main)
    Параметр Endianness формата : Big
    Идентификатор кодека : A_AC3
    Продолжительность : 1 ч. 19 м.
    Вид битрейта : Постоянный
    Битрейт : 192 Кбит/сек
    Каналы : 2 канала
    Расположение каналов : Front: L R
    Частота : 48,0 КГц
    Частота кадров : 31,250 кадров/сек (1536 spf)
    Битовая глубина : 16 бит
    Метод сжатия : С потерями
    Размер потока : 110 Мбайт (2%)
    Заголовок : Многоголосный (Закадровый)
    Язык : Russian
    Default : Да
    Forced : Нет
    Аудио #2
    Идентификатор : 3
    Формат : AC-3
    Формат/Информация : Audio Coding 3
    Расширение режима : CM (complete main)
    Параметр Endianness формата : Big
    Идентификатор кодека : A_AC3
    Продолжительность : 1 ч. 19 м.
    Вид битрейта : Постоянный
    Битрейт : 448 Кбит/сек
    Каналы : 6 каналов
    Расположение каналов : Front: L C R, Side: L R, LFE
    Частота : 48,0 КГц
    Частота кадров : 31,250 кадров/сек (1536 spf)
    Битовая глубина : 16 бит
    Метод сжатия : С потерями
    Размер потока : 256 Мбайт (5%)
    Заголовок : Оригинал
    Язык : German
    Default : Нет
    Forced : Нет
    Текст
    Идентификатор : 4
    Формат : UTF-8
    Идентификатор кодека : S_TEXT/UTF8
    Идентификатор кодека/Информация : UTF-8 Plain Text
    Продолжительность : 1 ч. 16 м.
    Битрейт : 103 бит/сек
    Count of elements : 1108
    Размер потока : 58,0 Кбайт (0%)
    Язык : Russian
    Default : Да
    Forced : Нет
  2. Стаж:
    1 год 9 месяцев
    Сообщений:
    476
    Пол:
    Мужской
    Молодёжный тупняк,вспомнил детство,сделал фильм... ! Смеюсь
    13-Июн-2018 02:27 (спустя 3 минуты)
  3. Стаж:
    8 месяцев 10 дней
    Сообщений:
    1
    Пол:
    Не указан
    9885Молодёжный тупняк,вспомнил детство,сделал фильм... ! Смеюсь
    а что,нормальный фильмец))Юность свою вспомнил,ведь и мы такие были))
    13-Июн-2018 17:30 (спустя 15 часов)
  4. Стаж:
    1 год 9 месяцев
    Сообщений:
    476
    Пол:
    Мужской
    Вторую часть чутка позже сделаю... !
    Там просто сейчас делаю три новых фильма:
    1) Тихоакеанский рубеж 2
    2) Лара Крофт (новый который)
    3) Излом времени
    13-Июн-2018 18:33 (спустя 1 час 2 минуты)


Вы не можете начинать темы
Вы не можете отвечать на сообщения
Вы не можете редактировать свои сообщения
Вы не можете удалять свои сообщения
Вы не можете голосовать в опросах
Вы не можете прикреплять файлы к сообщениям
Вы не можете скачивать файлы