Тор: Рагнарёк / Thor: Ragnarok (2017) BDRip 1080p | 60 fps Стражи Галактики. Часть 2 / Guardians of the Galaxy Vol. 2 (2017) BDRip 1080p | 60 fps Мстители: Эра Альтрона / Avengers: Age of Ultron (2015) BDRip 1080p | 60 fps Человек-паук: Возвращение домой / Spider-Man: Homecoming (2017) BDRip 1080p | 60 fps Валериан и город тысячи планет / Valerian and the City of a Thousand Planets (2017) BDRip 1080p | 60 fps Доктор Стрэндж / Doctor Strange (2016) BDRip 1080p | 60 fps Пираты Карибского моря: Мертвецы не рассказывают сказки / Pirates of the Caribbean: Dead Men Tell No Tales (2017) BDRip 1080p | 60 fps Аватар / Avatar (2009) BDRip 1080p | 60 fps
  1. Стаж:
    3 года 7 месяцев
    Сообщений:
    2332
    Пол:
    Мужской
    «Отныне миром правят боги и монстры»- Информация
    Название: Мумия
    Оригинальное название: The Mummy
    Год выхода: 2017
    Жанр: Ужасы, фэнтези, боевик, приключения
    Режиссер: Алекс Куртцман
    Сценарий: Дэвид Кепп, Кристофер МакКуорри, Дилан Кассман
    Продюсер: Сара Брэдшоу, Джеб Броди, Шон Дэниэл
    В ролях: Том Круз, Расселл Кроу, Аннабелль Уоллис, София Бутелла, Джейк Джонсон, Кортни Б. Вэнс, Марван Кензари, Саймон Атертон
    --Сюжет:
    Посреди безжалостной пустыни в величественном саркофаге погребена дочь египетского фараона, но настанет день, и она явится в наш мир вернуть себе то, что принадлежит ей по праву. Отныне миром правят боги и монстры.
    -Страна: США, Канада
    Продолжительность: 01:50:06

    Файл
    Кодек: MPEG4/ISO/AVC/H.264
    Формат: MKV
    Качество: BDRip 720p | 60 fps
    Видео: 1280 x 532 (2.406) | 59.940 fps | 10.6 Мбит/сек
    Аудио 01: AC3 | 5.1 | 48 kHz | 384 kbps | 16 bit | Дубляж - iTunes |
    Аудио 02: AC3 | 5.1 | 48 kHz | 640 kbps | 16 bit | english |
    Субтитры: Русские (forced, full), английские (full, SDH, SDH Colored)

    MedifInfo

    Видео
    Идентификатор : 1
    Формат : AVC
    Формат/Информация : Advanced Video Codec
    Профиль формата : High@L4.1
    Параметр CABAC формата : Да
    Параметр ReFrames формата : 3 кадра
    Идентификатор кодека : V_MPEG4/ISO/AVC
    Продолжительность : 1 ч. 50 м.
    Вид битрейта : Переменный
    Битрейт : 10,6 Мбит/сек
    Максимальный битрейт : 11,0 Мбит/сек
    Ширина : 1280 пикселей
    Высота : 532 пикселя
    Соотношение сторон : 2,40:1
    Режим частоты кадров : Постоянный
    Частота кадров : 59,880 кадров/сек
    Частота кадров в оригинале : 59,940 кадров/сек
    Стандарт вещания : PAL
    Цветовое пространство : YUV
    Субдискретизация насыщенности : 4:2:0
    Битовая глубина : 8 бит
    Тип развёртки : Прогрессивная
    Бит/(Пиксели*Кадры) : 0.260
    Размер потока : 8,16 Гбайт (89%)
    Заголовок : www.60-fps.org
    Язык : English
    Default : Да
    Forced : Нет
    Основные цвета : BT.601 NTSC
    Характеристики трансфера : BT.601
    Коэффициенты матрицы : BT.601
    colour_range : Limited
    Аудио #1
    Идентификатор : 2
    Формат : AC-3
    Формат/Информация : Audio Coding 3
    Расширение режима : CM (complete main)
    Параметр Endianness формата : Big
    Идентификатор кодека : A_AC3
    Продолжительность : 1 ч. 50 м.
    Вид битрейта : Постоянный
    Битрейт : 384 Кбит/сек
    Каналы : 6 каналов
    Расположение каналов : Front: L C R, Side: L R, LFE
    Частота : 48,0 КГц
    Битовая глубина : 16 бит
    Метод сжатия : С потерями
    Размер потока : 302 Мбайт (3%)
    Заголовок : Дубляж - iTunes
    Язык : Russian
    Default : Да
    Forced : Нет
    Аудио #2
    Идентификатор : 3
    Формат : AC-3
    Формат/Информация : Audio Coding 3
    Расширение режима : CM (complete main)
    Параметр Endianness формата : Big
    Идентификатор кодека : A_AC3
    Продолжительность : 1 ч. 50 м.
    Вид битрейта : Постоянный
    Битрейт : 640 Кбит/сек
    Каналы : 6 каналов
    Расположение каналов : Front: L C R, Side: L R, LFE
    Частота : 48,0 КГц
    Битовая глубина : 16 бит
    Метод сжатия : С потерями
    Размер потока : 504 Мбайт (5%)
    Заголовок : Original
    Язык : English
    Default : Нет
    Forced : Нет
    Текст #1
    Идентификатор : 4
    Формат : UTF-8
    Идентификатор кодека : S_TEXT/UTF8
    Идентификатор кодека/Информация : UTF-8 Plain Text
    Заголовок : Forced
    Язык : Russian
    Default : Да
    Forced : Нет
    Текст #2
    Идентификатор : 5
    Формат : UTF-8
    Идентификатор кодека : S_TEXT/UTF8
    Идентификатор кодека/Информация : UTF-8 Plain Text
    Заголовок : Full
    Язык : Russian
    Default : Нет
    Forced : Нет
    Текст #3
    Идентификатор : 6
    Формат : UTF-8
    Идентификатор кодека : S_TEXT/UTF8
    Идентификатор кодека/Информация : UTF-8 Plain Text
    Заголовок : Full
    Язык : English
    Default : Нет
    Forced : Нет
    Текст #4
    Идентификатор : 7
    Формат : UTF-8
    Идентификатор кодека : S_TEXT/UTF8
    Идентификатор кодека/Информация : UTF-8 Plain Text
    Заголовок : SDH
    Язык : English
    Default : Нет
    Forced : Нет
    Текст #5
    Идентификатор : 8
    Формат : UTF-8
    Идентификатор кодека : S_TEXT/UTF8
    Идентификатор кодека/Информация : UTF-8 Plain Text
    Заголовок : SDH Colored
    Язык : English
    Default : Нет
    Forced : Нет
    Меню
    00:00:00.000 : en:00:00:00.000
    00:08:18.707 : en:00:08:18.707
    00:13:18.923 : en:00:13:18.923
    00:19:31.462 : en:00:19:31.462
    00:24:40.145 : en:00:24:40.145
    00:28:54.107 : en:00:28:54.107
    00:35:41.389 : en:00:35:41.389
    00:39:36.040 : en:00:39:36.040
    00:47:00.067 : en:00:47:00.067
    00:50:57.638 : en:00:50:57.638
    00:56:49.740 : en:00:56:49.740
    01:00:43.849 : en:01:00:43.849
    01:08:58.009 : en:01:08:58.009
    01:16:03.851 : en:01:16:03.851
    01:19:38.440 : en:01:19:38.440
    01:23:16.408 : en:01:23:16.408
    01:26:26.848 : en:01:26:26.848
    01:33:34.943 : en:01:33:34.943
    01:37:02.984 : en:01:37:02.984
    01:39:47.982 : en:01:39:47.982

    Релиз подготовлен 60 - fps

  2. Стаж:
    1 год 9 месяцев
    Сообщений:
    459
    Пол:
    Мужской
    Нармульный фильм... Да
    02-Сен-2017 18:03 (спустя 32 минуты)
  3. Стаж:
    2 года 8 месяцев
    Сообщений:
    25
    Пол:
    Мужской
    Фильм хороший! И как я понимаю будет вторая часть однозначно. Хотелось бы, чтобы вторую сделали конечно еще более эффектной, чтобы например как фильм Боги Египта!
    05-Сен-2017 09:31 (спустя 2 дня 15 часов)
  4. Стаж:
    4 месяца 14 дней
    Сообщений:
    1
    Пол:
    Не указан
    rotten tomatoes 16%))) интересно почему
    13-Янв-2018 01:40 (спустя 4 месяца 7 дней)
  5. Стаж:
    2 года 2 месяца
    Сообщений:
    4
    Пол:
    Не указан
    Спасибо!
    07-Мар-2018 21:53 (спустя 1 месяц 25 дней)


Вы не можете начинать темы
Вы не можете отвечать на сообщения
Вы не можете редактировать свои сообщения
Вы не можете удалять свои сообщения
Вы не можете голосовать в опросах
Вы не можете прикреплять файлы к сообщениям
Вы не можете скачивать файлы