[Цитировать]
Kryl

«Отныне миром правят боги и монстры»- Информация
Название: Мумия
Оригинальное название: The Mummy
Год выхода: 2017
Жанр: Ужасы, фэнтези, боевик, приключения
Режиссер: Алекс Куртцман
Сценарий: Дэвид Кепп, Кристофер МакКуорри, Дилан Кассман
Продюсер: Сара Брэдшоу, Джеб Броди, Шон Дэниэл
В ролях: Том Круз, Расселл Кроу, Аннабелль Уоллис, София Бутелла, Джейк Джонсон, Кортни Б. Вэнс, Марван Кензари, Саймон Атертон
--Сюжет:
События происходят в наши дни, герой Тома Круза по имени Ник Мортон – боец спецподразделения на Ближнем Востоке, который, преследуя боевиков, попадает в странный бункер, где обнаруживает мумию ассирийской царицы. Вместе с ученой-антропологом по имени Дженни Хэлси (Аннабелль Уоллис) и группой солдат ее тело самолетом перевозят в Лондон. В процессе транспортировки случается инцидент, и самолет терпит крушение, после которого выжить удается только Нику и...мумии. Как гласит история, в свое время судьба несправедливо обошлась с ней и теперь, спустя тысячи лет, богиня просыпается ото сна. Пролежав все это время под тоннами песка, она наконец-то обретает свободу, и теперь ей ничто не помешает обрушить всю свою ярость на человечество.
-Страна: США, Канада
Продолжительность: 01:50:06

Файл
Кодек: MPEG4/ISO/AVC/H.264
Формат: MKV
Качество: BDRip 1080p | 60 fps
Видео: 1920 x 800 (2.400) | 59.940 fps | 25.0 Мбит/сек
Аудио 01: AC3 | 5.1 | 48 kHz | 384 kbps | 16 bit | Дубляж - iTunes |
Аудио 02: AC3 | 5.1 | 48 kHz | 640 kbps | 16 bit | english |
Субтитры: Русские (forced, full), английские (full, SDH, SDH Colored)

MedifInfo

Видео
Идентификатор : 1
Формат : AVC
Формат/Информация : Advanced Video Codec
Профиль формата : High@L4.1
Параметр CABAC формата : Да
Параметр ReFrames формата : 5 кадров
Идентификатор кодека : V_MPEG4/ISO/AVC
Продолжительность : 1 ч. 50 м.
Битрейт : 25,0 Мбит/сек
Ширина : 1920 пикселей
Высота : 800 пикселей
Соотношение сторон : 2,40:1
Режим частоты кадров : Постоянный
Частота кадров : 59,880 кадров/сек
Частота кадров в оригинале : 59,940 кадров/сек
Цветовое пространство : YUV
Субдискретизация насыщенности : 4:2:0
Битовая глубина : 8 бит
Тип развёртки : Прогрессивная
Бит/(Пиксели*Кадры) : 0.272
Размер потока : 18,8 Гбайт (94%)
Заголовок : www.60-fps.org
Библиотека кодирования : x264 core 148 r2744 b97ae06
Настройки программы : cabac=1 / ref=5 / deblock=1:-3:-3 / analyse=0x3:0x113 / me=umh / subme=8 / psy=1 / psy_rd=1.00:0.25 / mixed_ref=1 / me_range=32 / chroma_me=1 / trellis=1 / 8x8dct=1 / cqm=0 / deadzone=6,6 / fast_pskip=1 / chroma_qp_offset=-4 / threads=12 / lookahead_threads=2 / sliced_threads=0 / nr=0 / decimate=0 / interlaced=0 / bluray_compat=0 / constrained_intra=0 / bframes=3 / b_pyramid=2 / b_adapt=1 / b_bias=0 / direct=3 / weightb=1 / open_gop=0 / weightp=2 / keyint=599 / keyint_min=59 / scenecut=40 / intra_refresh=0 / rc_lookahead=50 / rc=2pass / mbtree=1 / bitrate=24999 / ratetol=1.0 / qcomp=0.80 / qpmin=0 / qpmax=69 / qpstep=4 / cplxblur=20.0 / qblur=0.5 / vbv_maxrate=62500 / vbv_bufsize=78125 / nal_hrd=none / filler=0 / ip_ratio=1.10 / aq=1:0.50
Default : Да
Forced : Нет
Аудио #1
Идентификатор : 2
Формат : AC-3
Формат/Информация : Audio Coding 3
Расширение режима : CM (complete main)
Параметр Endianness формата : Big
Идентификатор кодека : A_AC3
Продолжительность : 1 ч. 50 м.
Вид битрейта : Постоянный
Битрейт : 384 Кбит/сек
Каналы : 6 каналов
Расположение каналов : Front: L C R, Side: L R, LFE
Частота : 48,0 КГц
Битовая глубина : 16 бит
Метод сжатия : С потерями
Размер потока : 302 Мбайт (1%)
Заголовок : Дубляж - iTunes
Язык : Russian
Default : Да
Forced : Нет
Аудио #2
Идентификатор : 3
Формат : AC-3
Формат/Информация : Audio Coding 3
Расширение режима : CM (complete main)
Параметр Endianness формата : Big
Идентификатор кодека : A_AC3
Продолжительность : 1 ч. 50 м.
Вид битрейта : Постоянный
Битрейт : 640 Кбит/сек
Каналы : 6 каналов
Расположение каналов : Front: L C R, Side: L R, LFE
Частота : 48,0 КГц
Битовая глубина : 16 бит
Метод сжатия : С потерями
Размер потока : 504 Мбайт (2%)
Заголовок : Original
Язык : English
Default : Нет
Forced : Нет
Текст #1
Идентификатор : 4
Формат : UTF-8
Идентификатор кодека : S_TEXT/UTF8
Идентификатор кодека/Информация : UTF-8 Plain Text
Заголовок : Forced
Язык : Russian
Default : Да
Forced : Нет
Текст #2
Идентификатор : 5
Формат : UTF-8
Идентификатор кодека : S_TEXT/UTF8
Идентификатор кодека/Информация : UTF-8 Plain Text
Заголовок : Full
Язык : Russian
Default : Нет
Forced : Нет
Текст #3
Идентификатор : 6
Формат : UTF-8
Идентификатор кодека : S_TEXT/UTF8
Идентификатор кодека/Информация : UTF-8 Plain Text
Заголовок : Full
Язык : English
Default : Нет
Forced : Нет
Текст #4
Идентификатор : 7
Формат : UTF-8
Идентификатор кодека : S_TEXT/UTF8
Идентификатор кодека/Информация : UTF-8 Plain Text
Заголовок : SDH
Язык : English
Default : Нет
Forced : Нет
Текст #5
Идентификатор : 8
Формат : UTF-8
Идентификатор кодека : S_TEXT/UTF8
Идентификатор кодека/Информация : UTF-8 Plain Text
Заголовок : SDH Colored
Язык : English
Default : Нет
Forced : Нет
Меню
00:00:00.000 : en:00:00:00.000
00:08:18.707 : en:00:08:18.707
00:13:18.923 : en:00:13:18.923
00:19:31.462 : en:00:19:31.462
00:24:40.145 : en:00:24:40.145
00:28:54.107 : en:00:28:54.107
00:35:41.389 : en:00:35:41.389
00:39:36.040 : en:00:39:36.040
00:47:00.067 : en:00:47:00.067
00:50:57.638 : en:00:50:57.638
00:56:49.740 : en:00:56:49.740
01:00:43.849 : en:01:00:43.849
01:08:58.009 : en:01:08:58.009
01:16:03.851 : en:01:16:03.851
01:19:38.440 : en:01:19:38.440
01:23:16.408 : en:01:23:16.408
01:26:26.848 : en:01:26:26.848
01:33:34.943 : en:01:33:34.943
01:37:02.984 : en:01:37:02.984
01:39:47.982 : en:01:39:47.982

Релиз подготовлен 60 - fps

[Цитировать]
ENIGMA

Большое Спасибо Улыбаюсь

[Цитировать]
skorpi11

Респект! Улыбаюсь
 
Показать сообщения:    

Текущее время: 18-Окт 13:58

Часовой пояс: UTC + 3


Вы не можете начинать темы
Вы не можете отвечать на сообщения
Вы не можете редактировать свои сообщения
Вы не можете удалять свои сообщения
Вы не можете голосовать в опросах
Вы не можете прикреплять файлы к сообщениям
Вы не можете скачивать файлы