1. Longevity:
    5 years 2 months
    Posts:
    1681
    Gender:
    Male
    Фильм «Приключение, неподвластное времени» Фильм- Информация
    Название: Мумия: Гробница Императора Драконов
    Оригинальное название: The Mummy: Tomb of the Dragon Emperor
    Год выхода: 2008
    Жанр: ужасы, фэнтези, боевик, триллер, приключения
    Режиссер: Роб Коэн
    Сценарий: Альфред Гоф, Майлз Миллар, Джон Л. Болдерстон
    Продюсер: Шон Дэниэл, Боб Дюксэй, Джеймс Джекс
    В ролях: Брендан Фрейзер,Джет Ли,Мария Белло,Джон Ханна,Мишель Йео,Люк Форд,Изабелла Люн,Энтони Вон,Расселл Вонг,Лиам Каннингэм
    --Сюжет:
    Заколдованный волшебницей, безжалостный китайский император-дракон должен провести вечность в забвении. Его 10 000 воинов превратились в терракотовых воинов. Однако когда искатель приключений Алекс О`Коннелл случайно пробуждает властителя от вечной спячки, он вынужден искать помощи у единственных людей, которые знают, как справиться с воскресшими мертвецами: у своих родителей.
    Монарх возвращается к жизни, и наши герои понимают, что его сила за эту тысячу лет только увеличилась. Мумия готова поднять всю Азию в борьбе за мировое господство… если О`Коннеллы ее не остановят.
    -- Страна: США, Германия
    Продолжительность: 01:51:40

    Файл
    Кодек: MPEG4/ISO/AVC H.264
    Формат: MKV
    Качество: BDRip 720p | 59,940 fps
    Видео: 1280 x 720 (1.778) | 59.880 fps | 5163 Кбит/сек
    Аудио 1: AC3 | 5.1 | 48 kHz | 448 Кбит/сек | 16 bit | Дубляж |
    Аудио 2: AC3 | 5.1 | 48 kHz | 640 Кбит/сек | 16 bit | Оригинал |
    Субтитры: English,Russian

    MedifInfo

    Видео
    Идентификатор : 1
    Формат : AVC
    Формат/Информация : Advanced Video Codec
    Профиль формата : [email protected]
    Параметр CABAC формата : Да
    Параметр ReFrames формата : 4 кадра
    Идентификатор кодека : V_MPEG4/ISO/AVC
    Продолжительность : 1 ч. 51 м.
    Битрейт : 5163 Кбит/сек
    Ширина : 1280 пикселей
    Высота : 720 пикселей
    Соотношение сторон : 16:9
    Режим частоты кадров : Постоянный
    Частота кадров : 59,940 (59940/1000) кадров/сек
    Цветовое пространство : YUV
    Субдискретизация насыщенности : 4:2:0
    Битовая глубина : 8 бит
    Тип развёртки : Прогрессивная
    Бит/(Пиксели*Кадры) : 0.093
    Размер потока : 3,93 Гбайт (81%)
    Заголовок : The Mummy: Tomb of the Dragon Emperor (2008) BDRip 720(60fps).mkv
    Библиотека кодирования : x264 core 130 r2273 b3065e6
    Настройки программы : cabac=1 / ref=4 / deblock=1:-3:-3 / analyse=0x3:0x113 / me=umh / subme=9 / psy=1 / psy_rd=1.00:0.15 / mixed_ref=1 / me_range=24 / chroma_me=1 / trellis=1 / 8x8dct=1 / cqm=0 / deadzone=21,11 / fast_pskip=1 / chroma_qp_offset=-3 / threads=3 / lookahead_threads=1 / sliced_threads=0 / nr=0 / decimate=1 / interlaced=0 / bluray_compat=0 / constrained_intra=0 / bframes=4 / b_pyramid=2 / b_adapt=2 / b_bias=0 / direct=3 / weightb=1 / open_gop=0 / weightp=2 / keyint=250 / keyint_min=25 / scenecut=40 / intra_refresh=0 / rc_lookahead=50 / rc=2pass / mbtree=1 / bitrate=5163 / ratetol=1.0 / qcomp=0.60 / qpmin=0 / qpmax=69 / qpstep=4 / cplxblur=20.0 / qblur=0.5 / ip_ratio=1.40 / aq=1:1.00
    Язык : English
    Default : Да
    Forced : Нет
    Аудио #1
    Идентификатор : 2
    Формат : AC-3
    Формат/Информация : Audio Coding 3
    Расширение режима : CM (complete main)
    Параметр Endianness формата : Big
    Идентификатор кодека : A_AC3
    Продолжительность : 1 ч. 51 м.
    Вид битрейта : Постоянный
    Битрейт : 448 Кбит/сек
    Каналы : 6 каналов
    Расположение каналов : Front: L C R, Side: L R, LFE
    Частота : 48,0 КГц
    Частота кадров : 31,250 кадров/сек (1536 spf)
    Битовая глубина : 16 бит
    Метод сжатия : С потерями
    Размер потока : 358 Мбайт (7%)
    Заголовок : Dub Blu Ray
    Язык : Russian
    Default : Да
    Forced : Нет
    Аудио #2
    Идентификатор : 3
    Формат : AC-3
    Формат/Информация : Audio Coding 3
    Расширение режима : CM (complete main)
    Параметр Endianness формата : Big
    Идентификатор кодека : A_AC3
    Продолжительность : 1 ч. 51 м.
    Вид битрейта : Постоянный
    Битрейт : 640 Кбит/сек
    Каналы : 6 каналов
    Расположение каналов : Front: L C R, Side: L R, LFE
    Частота : 48,0 КГц
    Частота кадров : 31,250 кадров/сек (1536 spf)
    Битовая глубина : 16 бит
    Метод сжатия : С потерями
    Размер потока : 511 Мбайт (10%)
    Заголовок : Original
    Язык : English
    Default : Нет
    Forced : Нет
    Текст #1
    Идентификатор : 4
    Формат : UTF-8
    Идентификатор кодека : S_TEXT/UTF8
    Идентификатор кодека/Информация : UTF-8 Plain Text
    Заголовок : Forced
    Язык : Russian
    Default : Да
    Forced : Нет
    Текст #2
    Идентификатор : 5
    Формат : UTF-8
    Идентификатор кодека : S_TEXT/UTF8
    Идентификатор кодека/Информация : UTF-8 Plain Text
    Заголовок : Full
    Язык : Russian
    Default : Нет
    Forced : Нет
    Текст #3
    Идентификатор : 6
    Формат : UTF-8
    Идентификатор кодека : S_TEXT/UTF8
    Идентификатор кодека/Информация : UTF-8 Plain Text
    Заголовок : Full
    Язык : English
    Default : Нет
    Forced : Нет
    Меню
    00:00:00.000 : en: Search for Immortality
    00:05:24.074 : en: Cursed by the Wizard
    00:09:52.133 : en: Retired Life
    00:14:15.480 : en: Like Father, Like Son
    00:19:13.402 : en: Finding the Tomb
    00:24:33.681 : en: One Last Assignment
    00:30:57.647 : en: Bringing Order
    00:35:30.962 : en: Rise of the Emperor
    00:42:16.367 : en: Happy New Year
    00:48:17.686 : en: Family Meeting
    00:52:26.894 : en: Not My Type
    00:57:28.528 : en: Defending the Gateway
    01:02:40.590 : en: Atop the Golden Tower
    01:09:52.230 : en: Shangri-La
    01:15:54.216 : en: Reaching the Pool
    01:21:00.981 : en: Awaken the Army
    01:25:33.420 : en: Prepare for Battle
    01:33:54.963 : en: Divide and Conquer
    01:39:53.946 : en: The Next Adventure
    01:41:28.499 : en: End Credits
  2. Longevity:
    4 years 3 months
    Posts:
    5
    Gender:
    Male
    Поцелуй Улыбаюсь
    06-Oct-2017 14:05 (after 1 day 13 hours)
  3. kub

    Longevity:
    4 years 10 months
    Posts:
    8
    Gender:
    Male
    Спасибо!!! 2 часть будет? Улыбаюсь Улыбаюсь

    _________________
    Signed off for violation of forum rules
    07-Oct-2017 17:26 (after 1 day 3 hours)
  4. Longevity:
    5 years 2 months
    Posts:
    1681
    Gender:
    Male
    kub, БУДЕТ... ! Подмигиваю
    Не могу точно сказать когда,но исходник в процессе закачки Ожидание
    07-Oct-2017 17:43 (after 16 minutes)
  5. kub

    Longevity:
    4 years 10 months
    Posts:
    8
    Gender:
    Male
    Талямба ждемсссссссссс Смеюсь

    _________________
    Signed off for violation of forum rules
    07-Oct-2017 23:00 (after 5 hours)


You cannot post new topics in this forum
You cannot reply to topics in this forum
You cannot edit your posts in this forum
You cannot delete your posts in this forum
You cannot vote in polls in this forum
You cannot attach files in this forum
You cannot download files in this forum