1. Longevity:
    7 years
    Posts:
    2413
    Gender:
    Male
    «He entered in a world where fantasies are real»- Информация
    Название: Мулен Руж!
    Оригинальное название: Moulin Rouge!
    Год выхода: 2001
    Жанр: Драма, мелодрама, мюзикл, экранизация
    Режиссер: Баз Лурман
    Сценарий: Баз Лурман, Крэйг Пирс
    Продюсер: Фред Барон, Мартин Браун, Баз Лурман
    В ролях: Николь Кидман, Эван МакГрегор, Деобия Опарей, Тара Морис, Эшли Уоллен, Натан Райт, Нэнди МакЛин, Майя МакЛин, Джон Легуизамо, Джим Бродбент, Кристин Ану, Гэрри МакДоналд, Нэтали Джексон Мендоса, Кайли Миноуг, Ричард Роксберг, Кароль Скиннер, Дейвид Уинам, Мэттью Уиттет, Керри Уокер, Джонатан Харди, Лайнэл Хэфт, Энтони Янг, Яцек Коман
    --Сюжет:
    Действие фильма разворачивается в 1899 году в знаменитом парижском ночном клубе. Мулен Руж, это не только дискотека и шикарный бордель, но и место, где, повинуясь неудержимому желанию прочувствовать атмосферу праздника, собираются страждущие приобщиться к красоте, свободе, любви и готовые платить за это… наличными. Это место, где воедино сходятся трагедия и комедия, роскошные интерьеры начала столетия и современные музыкальные ритмы. За любовь самой известной куртизанки Парижа, блистательной Сатин борются два мужчины, один из которых – бедный писатель Кристиан, с головой окунувшийся в сумасшедший мир ночных развлечений, второй – богатый герцог, готовый купить весь Мулен Руж, лишь бы Сатин провела с ним ночь.
    -Страна: Австралия, США
    Продолжительность: 02:07:50

    Файл
    Кодек: MPEG4/ISO/AVC/H.264
    Формат: MKV
    Качество: BDRip 720p | 60 fps
    Видео: 1280 x 532 (2.406) | 59.940 fps | 11.6 Мбит/сек
    Аудио 01: AC3 | 5.1 | 48 kHz | 640 kbps | 16 bit | Дубляж - Blu-ray CEE |
    Аудио 02: AC3 | 5.1 | 48 kHz | 448 kbps | 16 bit | Многоголосый - Позитив-Мультимедия |
    Аудио 03: AC3 | 5.1 | 48 kHz | 640 kbps | 16 bit | Многоголосый - Киномания |
    Аудио 04: AC3 | 5.1 | 48 kHz | 640 kbps | 16 bit | Многоголосый - Карусель 1 |
    Аудио 05: AC3 | 5.1 | 48 kHz | 640 kbps | 16 bit | Многоголосый - Карусель 2 |
    Аудио 06: AC3 | 5.1 | 48 kHz | 640 kbps | 16 bit | Авторский - Ю.Сербин |
    Аудио 07: AC3 | 5.1 | 48 kHz | 640 kbps | 16 bit | Авторский - Ю.Сербин (без песен) |
    Аудио 08: AC3 | 5.1 | 48 kHz | 640 kbps | 16 bit | Авторский - С.Кузнецов |
    Аудио 09: AC3 | 5.1 | 48 kHz | 640 kbps | 16 bit | Авторский - Л.Володарский |
    Аудио 10: AC3 | 5.1 | 48 kHz | 640 kbps | 16 bit | Авторский - В.Рукин |
    Аудио 11: AC3 | 5.1 | 48 kHz | 448 kbps | 16 bit | украинский Многоголосый |
    Аудио 12: AC3 | 5.1 | 48 kHz | 640 kbps | 16 bit | english |
    Субтитры: Полные - русские, английские. Перевод песен - русские ( вкл. по умолчанию)

    MedifInfo

    Видео
    Идентификатор : 1
    Формат : AVC
    Формат/Информация : Advanced Video Codec
    Профиль формата : [email protected]
    Параметр CABAC формата : Да
    Параметр ReFrames формата : 3 кадра
    Параметр GOP формата : M=3, N=72
    Идентификатор кодека : V_MPEG4/ISO/AVC
    Продолжительность : 2 ч. 7 м.
    Вид битрейта : Переменный
    Битрейт : 11,6 Мбит/сек
    Максимальный битрейт : 12,0 Мбит/сек
    Ширина : 1280 пикселей
    Высота : 532 пикселя
    Соотношение сторон : 2,40:1
    Режим частоты кадров : Постоянный
    Частота кадров : 59,880 кадров/сек
    Частота кадров в оригинале : 59,940 кадров/сек
    Стандарт вещания : PAL
    Цветовое пространство : YUV
    Субдискретизация насыщенности : 4:2:0
    Битовая глубина : 8 бит
    Тип развёртки : Прогрессивная
    Бит/(Пиксели*Кадры) : 0.284
    Размер потока : 10,3 Гбайт (60%)
    Заголовок : www.60-fps.org
    Язык : English
    Default : Да
    Forced : Нет
    Основные цвета : BT.601 NTSC
    Характеристики трансфера : BT.601
    Коэффициенты матрицы : BT.601
    colour_range : Limited
    Аудио #1
    Идентификатор : 2
    Формат : AC-3
    Формат/Информация : Audio Coding 3
    Расширение режима : CM (complete main)
    Параметр Endianness формата : Big
    Идентификатор кодека : A_AC3
    Продолжительность : 2 ч. 7 м.
    Вид битрейта : Постоянный
    Битрейт : 640 Кбит/сек
    Каналы : 6 каналов
    Расположение каналов : Front: L C R, Side: L R, LFE
    Частота : 48,0 КГц
    Битовая глубина : 16 бит
    Метод сжатия : С потерями
    Размер потока : 585 Мбайт (3%)
    Заголовок : Дубляж - Blu-ray CEE
    Язык : Russian
    Default : Да
    Forced : Нет
    Аудио #2
    Идентификатор : 3
    Формат : AC-3
    Формат/Информация : Audio Coding 3
    Расширение режима : CM (complete main)
    Параметр Endianness формата : Big
    Идентификатор кодека : A_AC3
    Продолжительность : 2 ч. 7 м.
    Вид битрейта : Постоянный
    Битрейт : 448 Кбит/сек
    Каналы : 6 каналов
    Расположение каналов : Front: L C R, Side: L R, LFE
    Частота : 48,0 КГц
    Битовая глубина : 16 бит
    Метод сжатия : С потерями
    Размер потока : 410 Мбайт (2%)
    Заголовок : Многоголосый - Позитив-Мультимедия
    Язык : Russian
    Default : Нет
    Forced : Нет
    Аудио #3
    Идентификатор : 4
    Формат : AC-3
    Формат/Информация : Audio Coding 3
    Расширение режима : CM (complete main)
    Параметр Endianness формата : Big
    Идентификатор кодека : A_AC3
    Продолжительность : 2 ч. 7 м.
    Вид битрейта : Постоянный
    Битрейт : 640 Кбит/сек
    Каналы : 6 каналов
    Расположение каналов : Front: L C R, Side: L R, LFE
    Частота : 48,0 КГц
    Битовая глубина : 16 бит
    Метод сжатия : С потерями
    Размер потока : 585 Мбайт (3%)
    Заголовок : Многоголосый - Киномания
    Язык : Russian
    Default : Нет
    Forced : Нет
    Аудио #4
    Идентификатор : 5
    Формат : AC-3
    Формат/Информация : Audio Coding 3
    Расширение режима : CM (complete main)
    Параметр Endianness формата : Big
    Идентификатор кодека : A_AC3
    Продолжительность : 2 ч. 7 м.
    Вид битрейта : Постоянный
    Битрейт : 640 Кбит/сек
    Каналы : 6 каналов
    Расположение каналов : Front: L C R, Side: L R, LFE
    Частота : 48,0 КГц
    Битовая глубина : 16 бит
    Метод сжатия : С потерями
    Размер потока : 585 Мбайт (3%)
    Заголовок : Многоголосый - Карусель 1
    Язык : Russian
    Default : Нет
    Forced : Нет
    Аудио #5
    Идентификатор : 6
    Формат : AC-3
    Формат/Информация : Audio Coding 3
    Расширение режима : CM (complete main)
    Параметр Endianness формата : Big
    Идентификатор кодека : A_AC3
    Продолжительность : 2 ч. 7 м.
    Вид битрейта : Постоянный
    Битрейт : 640 Кбит/сек
    Каналы : 6 каналов
    Расположение каналов : Front: L C R, Side: L R, LFE
    Частота : 48,0 КГц
    Битовая глубина : 16 бит
    Метод сжатия : С потерями
    Размер потока : 585 Мбайт (3%)
    Заголовок : Многоголосый - Карусель 2
    Язык : Russian
    Default : Нет
    Forced : Нет
    Аудио #6
    Идентификатор : 7
    Формат : AC-3
    Формат/Информация : Audio Coding 3
    Расширение режима : CM (complete main)
    Параметр Endianness формата : Big
    Идентификатор кодека : A_AC3
    Продолжительность : 2 ч. 7 м.
    Вид битрейта : Постоянный
    Битрейт : 640 Кбит/сек
    Каналы : 6 каналов
    Расположение каналов : Front: L C R, Side: L R, LFE
    Частота : 48,0 КГц
    Битовая глубина : 16 бит
    Метод сжатия : С потерями
    Размер потока : 585 Мбайт (3%)
    Заголовок : Авторский - Ю.Сербин
    Язык : Russian
    Default : Нет
    Forced : Нет
    Аудио #7
    Идентификатор : 8
    Формат : AC-3
    Формат/Информация : Audio Coding 3
    Расширение режима : CM (complete main)
    Параметр Endianness формата : Big
    Идентификатор кодека : A_AC3
    Продолжительность : 2 ч. 7 м.
    Вид битрейта : Постоянный
    Битрейт : 640 Кбит/сек
    Каналы : 6 каналов
    Расположение каналов : Front: L C R, Side: L R, LFE
    Частота : 48,0 КГц
    Битовая глубина : 16 бит
    Метод сжатия : С потерями
    Размер потока : 585 Мбайт (3%)
    Заголовок : Авторский - Ю.Сербин (без песен)
    Язык : Russian
    Default : Нет
    Forced : Нет
    Аудио #8
    Идентификатор : 9
    Формат : AC-3
    Формат/Информация : Audio Coding 3
    Расширение режима : CM (complete main)
    Параметр Endianness формата : Big
    Идентификатор кодека : A_AC3
    Продолжительность : 2 ч. 7 м.
    Вид битрейта : Постоянный
    Битрейт : 640 Кбит/сек
    Каналы : 6 каналов
    Расположение каналов : Front: L C R, Side: L R, LFE
    Частота : 48,0 КГц
    Битовая глубина : 16 бит
    Метод сжатия : С потерями
    Размер потока : 585 Мбайт (3%)
    Заголовок : Авторский - С.Кузнецов
    Язык : Russian
    Default : Нет
    Forced : Нет
    Аудио #9
    Идентификатор : 10
    Формат : AC-3
    Формат/Информация : Audio Coding 3
    Расширение режима : CM (complete main)
    Параметр Endianness формата : Big
    Идентификатор кодека : A_AC3
    Продолжительность : 2 ч. 7 м.
    Вид битрейта : Постоянный
    Битрейт : 640 Кбит/сек
    Каналы : 6 каналов
    Расположение каналов : Front: L C R, Side: L R, LFE
    Частота : 48,0 КГц
    Битовая глубина : 16 бит
    Метод сжатия : С потерями
    Размер потока : 585 Мбайт (3%)
    Заголовок : Авторский - Л.Володарский
    Язык : Russian
    Default : Нет
    Forced : Нет
    Аудио #10
    Идентификатор : 11
    Формат : AC-3
    Формат/Информация : Audio Coding 3
    Расширение режима : CM (complete main)
    Параметр Endianness формата : Big
    Идентификатор кодека : A_AC3
    Продолжительность : 2 ч. 7 м.
    Вид битрейта : Постоянный
    Битрейт : 640 Кбит/сек
    Каналы : 6 каналов
    Расположение каналов : Front: L C R, Side: L R, LFE
    Частота : 48,0 КГц
    Битовая глубина : 16 бит
    Метод сжатия : С потерями
    Размер потока : 585 Мбайт (3%)
    Заголовок : Авторский - В.Рукин
    Язык : Russian
    Default : Нет
    Forced : Нет
    Аудио #11
    Идентификатор : 12
    Формат : AC-3
    Формат/Информация : Audio Coding 3
    Расширение режима : CM (complete main)
    Параметр Endianness формата : Big
    Идентификатор кодека : A_AC3
    Продолжительность : 2 ч. 7 м.
    Вид битрейта : Постоянный
    Битрейт : 448 Кбит/сек
    Каналы : 6 каналов
    Расположение каналов : Front: L C R, Side: L R, LFE
    Частота : 48,0 КГц
    Битовая глубина : 16 бит
    Метод сжатия : С потерями
    Размер потока : 410 Мбайт (2%)
    Заголовок : Украинский - ПМ
    Язык : Ukrainian
    Default : Нет
    Forced : Нет
    Аудио #12
    Идентификатор : 13
    Формат : AC-3
    Формат/Информация : Audio Coding 3
    Расширение режима : CM (complete main)
    Параметр Endianness формата : Big
    Идентификатор кодека : A_AC3
    Продолжительность : 2 ч. 7 м.
    Вид битрейта : Постоянный
    Битрейт : 640 Кбит/сек
    Каналы : 6 каналов
    Расположение каналов : Front: L C R, Side: L R, LFE
    Частота : 48,0 КГц
    Битовая глубина : 16 бит
    Метод сжатия : С потерями
    Размер потока : 585 Мбайт (3%)
    Заголовок : english
    Язык : English
    Default : Нет
    Forced : Нет
    Текст #1
    Идентификатор : 14
    Формат : UTF-8
    Идентификатор кодека : S_TEXT/UTF8
    Идентификатор кодека/Информация : UTF-8 Plain Text
    Заголовок : Русские
    Язык : Russian
    Default : Нет
    Forced : Нет
    Текст #2
    Идентификатор : 15
    Формат : UTF-8
    Идентификатор кодека : S_TEXT/UTF8
    Идентификатор кодека/Информация : UTF-8 Plain Text
    Заголовок : Русские - (песни)
    Язык : Russian
    Default : Да
    Forced : Нет
    Текст #3
    Идентификатор : 16
    Формат : UTF-8
    Идентификатор кодека : S_TEXT/UTF8
    Идентификатор кодека/Информация : UTF-8 Plain Text
    Заголовок : Английские
    Язык : English
    Default : Нет
    Forced : Нет
    Меню
    00:00:00.000 : en:MAIN TITLES
    00:01:19.079 : en:THERE WAS A BOY...
    00:05:32.666 : en:MEET THE BOHEMIANS
    00:10:47.355 : en:AT THE MOULIN ROUGE "YOU'LL HAVE FUN"
    00:13:05.785 : en:THE CAN CAN (BOHOS EVADE ZIDLER)
    00:14:12.143 : en:SATINE - THE SPARKING DIAMOND
    00:21:02.511 : en:SATINE FALLS
    00:25:07.756 : en:A POETRY READING
    00:27:36.029 : en:YOUR SONG
    00:31:24.633 : en:INTRODUCING THE DUKE
    00:35:46.478 : en:THE EMERGENCY REHERSAL
    00:40:06.571 : en:THE PITCH
    00:44:31.919 : en:ONE DAY I'LL FLY AWAY
    00:48:46.382 : en:ELEPHANT LOVE MEDLEY
    00:53:28.789 : en:THE CONTRACT
    00:55:08.013 : en:ON WITH THE SHOW
    00:57:44.044 : en:THE DUKE'S DEMAND
    00:59:36.281 : en:A DARKER FORCE
    01:01:25.765 : en:LIKE A VIRGIN
    01:05:43.606 : en:SATIN IS DYING
    01:08:01.577 : en:COME WHAT MAY
    01:12:44.277 : en:I DON'T LIKE THIS ENDING
    01:18:08.726 : en:LE TANGO DE ROXANNE
    01:25:32.586 : en:WE'LL LIVE TINIGHT
    01:27:09.182 : en:I'LL HAVE THE BOY KILLED
    01:29:50.010 : en:FOOL TO BELIVE
    01:32:02.475 : en:THE SHOW MUST GO ON
    01:34:57.150 : en:SATINE'S SACRIFICE
    01:36:20.775 : en:THE STORM BREAKS
    01:38:50.341 : en:HINDI SAD DIAMONDS
    01:42:24.597 : en:THIS WOMAN IS YOURS NOW
    01:47:45.459 : en:COME WHAT MAY (REPRISE)
    01:51:32.895 : en:COUP D'ETAT
    01:53:21.294 : en:THE FINAL CURTAIN
    01:58:41.156 : en:ABOVE ALL THINGS... LOVE
    02:00:24.050 : en:END TITLES

    Release was prepared by 60-fps.org

  2. Longevity:
    6 years 9 months
    Posts:
    2
    Gender:
    Unknown
    Названия аудиодорожек перепутаны.
    25-Aug-2017 12:21 (after 4 days)
  3. Longevity:
    4 years 11 months
    Posts:
    110
    Gender:
    Male
    8348Названия аудиодорожек перепутаны.
    Угу, аудиодорожку с дубляжом назвали "Авторский - С.Кузнецов"...
    25-Aug-2017 23:14 (after 10 hours)


You cannot post new topics in this forum
You cannot reply to topics in this forum
You cannot edit your posts in this forum
You cannot delete your posts in this forum
You cannot vote in polls in this forum
You cannot attach files in this forum
You cannot download files in this forum