Агент Ева / Ava (2020) BDRip 1080p | 60 fps Властелин колец: Трилогия / The Lord of the Rings: Trilogy (2001-2003) BDRip-AVC | Extended Cut | 60 fps Пятый элемент / The Fifth Element (1997) BDRip 1080p | 60 fps Форпост / The Outpost (2020) BDRip 1080p | 60 fps Охота / The Hunt (2020) BDRip 1080p | 60 fps Принц Персии: Пески времени / Prince of Persia: The Sands of Time (2010) BDRip 1080p | 60 fps Поезд смерти / D-Railed (2018) BDRip 1080p | 60 fps Вивариум / Vivarium (2019) BDRip 720p | 60 fps
  1. Longevity:
    6 years 4 months
    Posts:
    2414
    Gender:
    Male
    «He entered in a world where fantasies are real»- Информация
    Название: Мулен Руж!
    Оригинальное название: Moulin Rouge!
    Год выхода: 2001
    Жанр: Драма, мелодрама, мюзикл, экранизация
    Режиссер: Баз Лурман
    Сценарий: Баз Лурман, Крэйг Пирс
    Продюсер: Фред Барон, Мартин Браун, Баз Лурман
    В ролях: Николь Кидман, Эван МакГрегор, Деобия Опарей, Тара Морис, Эшли Уоллен, Натан Райт, Нэнди МакЛин, Майя МакЛин, Джон Легуизамо, Джим Бродбент, Кристин Ану, Гэрри МакДоналд, Нэтали Джексон Мендоса, Кайли Миноуг, Ричард Роксберг, Кароль Скиннер, Дейвид Уинам, Мэттью Уиттет, Керри Уокер, Джонатан Харди, Лайнэл Хэфт, Энтони Янг, Яцек Коман
    --Сюжет:
    Действие фильма разворачивается в 1899 году в знаменитом парижском ночном клубе. Мулен Руж, это не только дискотека и шикарный бордель, но и место, где, повинуясь неудержимому желанию прочувствовать атмосферу праздника, собираются страждущие приобщиться к красоте, свободе, любви и готовые платить за это… наличными. Это место, где воедино сходятся трагедия и комедия, роскошные интерьеры начала столетия и современные музыкальные ритмы. За любовь самой известной куртизанки Парижа, блистательной Сатин борются два мужчины, один из которых – бедный писатель Кристиан, с головой окунувшийся в сумасшедший мир ночных развлечений, второй – богатый герцог, готовый купить весь Мулен Руж, лишь бы Сатин провела с ним ночь.
    -Страна: Австралия, США
    Продолжительность: 02:07:50

    Файл
    Кодек: MPEG4/ISO/AVC/H.264
    Формат: MKV
    Качество: BDRip 1080p | 60 fps
    Видео: 1920 x 800 (2.400) | 59.940 fps | 26.5 Мбит/сек
    Аудио 01: DTS | 5.1 | 48 kHz | 768 kbps | 16 bit | Дубляж - Blu-ray CEE |
    Аудио 02: AC3 | 5.1 | 48 kHz | 448 kbps | 16 bit | Многоголосый - Позитив-Мультимеди |
    Аудио 03: DTS-HD | 5.1 | 48 kHz | 4138 kbps | 24 bit | Многоголосый - Киномания |
    Аудио 04: DTS-HD | 5.1 | 48 kHz | 4144 kbps | 24 bit | Многоголосый - Карусель 1 |
    Аудио 05: DTS-HD | 5.1 | 48 kHz | 4154 kbps | 24 bit | Многоголосый - Карусель 2 |
    Аудио 06: DTS-HD | 5.1 | 48 kHz | 4131 kbps | 24 bit | Авторский - Ю.Сербин |
    Аудио 07: DTS-HD | 5.1 | 48 kHz | 4131 kbps | 24 bit | Авторский - Ю.Сербин (без песен) |
    Аудио 08: DTS-HD | 5.1 | 48 kHz | 4127 kbps | 24 bit | Авторский - С.Кузнецов |
    Аудио 09: DTS-HD | 5.1 | 48 kHz | 4136 kbps | 24 bit | Авторский - Л.Володарский |
    Аудио 10: DTS-HD | 5.1 | 48 kHz | 4138 kbps | 24 bit | Авторский - В.Рукин |
    Аудио 11: AC3 | 5.1 | 48 kHz | 448 kbps | 16 bit | украинский Многоголосый |
    Аудио 12: DTS-HD | 5.1 | 48 kHz | 4122 kbps | 24 bit | english |
    Субтитры: Полные - русские, английские. Перевод песен - русские ( вкл. по умолчанию)

    MedifInfo

    Видео
    Идентификатор : 1
    Формат : AVC
    Формат/Информация : Advanced Video Codec
    Профиль формата : [email protected]
    Параметр CABAC формата : Да
    Параметр ReFrames формата : 5 кадров
    Идентификатор кодека : V_MPEG4/ISO/AVC
    Продолжительность : 2 ч. 7 м.
    Номинальный битрейт : 26,5 Мбит/сек
    Ширина : 1920 пикселей
    Высота : 800 пикселей
    Соотношение сторон : 2,40:1
    Режим частоты кадров : Постоянный
    Частота кадров : 59,880 кадров/сек
    Частота кадров в оригинале : 59,940 кадров/сек
    Цветовое пространство : YUV
    Субдискретизация насыщенности : 4:2:0
    Битовая глубина : 8 бит
    Тип развёртки : Прогрессивная
    Бит/(Пиксели*Кадры) : 0.288
    Библиотека кодирования : x264 core 148 r2744 b97ae06
    Настройки программы : cabac=1 / ref=5 / deblock=1:-3:-3 / analyse=0x3:0x113 / me=umh / subme=8 / psy=1 / psy_rd=1.00:0.25 / mixed_ref=1 / me_range=32 / chroma_me=1 / trellis=1 / 8x8dct=1 / cqm=0 / deadzone=6,6 / fast_pskip=1 / chroma_qp_offset=-4 / threads=12 / lookahead_threads=2 / sliced_threads=0 / nr=0 / decimate=0 / interlaced=0 / bluray_compat=0 / constrained_intra=0 / bframes=3 / b_pyramid=2 / b_adapt=1 / b_bias=0 / direct=3 / weightb=1 / open_gop=0 / weightp=2 / keyint=599 / keyint_min=59 / scenecut=40 / intra_refresh=0 / rc_lookahead=50 / rc=2pass / mbtree=1 / bitrate=26499 / ratetol=1.0 / qcomp=0.80 / qpmin=0 / qpmax=69 / qpstep=4 / cplxblur=20.0 / qblur=0.5 / vbv_maxrate=62500 / vbv_bufsize=78125 / nal_hrd=none / filler=0 / ip_ratio=1.10 / aq=1:0.50
    Default : Да
    Forced : Нет
    Аудио #1
    Идентификатор : 2
    Формат : DTS
    Формат/Информация : Digital Theater Systems
    Режим : 16
    Параметр Endianness формата : Big
    Идентификатор кодека : A_DTS
    Продолжительность : 2 ч. 7 м.
    Вид битрейта : Постоянный
    Битрейт : 768 Кбит/сек
    Каналы : 6 каналов
    Расположение каналов : Front: L C R, Side: L R, LFE
    Частота : 48,0 КГц
    Битовая глубина : 24 бит
    Метод сжатия : С потерями
    Размер потока : 702 Мбайт (1%)
    Заголовок : Русский DTS - Дубляж Blu-ray CEE
    Язык : Russian
    Default : Да
    Forced : Нет
    Аудио #2
    Идентификатор : 3
    Формат : AC-3
    Формат/Информация : Audio Coding 3
    Расширение режима : CM (complete main)
    Параметр Endianness формата : Big
    Идентификатор кодека : A_AC3
    Продолжительность : 2 ч. 7 м.
    Вид битрейта : Постоянный
    Битрейт : 448 Кбит/сек
    Каналы : 6 каналов
    Расположение каналов : Front: L C R, Side: L R, LFE
    Частота : 48,0 КГц
    Битовая глубина : 16 бит
    Метод сжатия : С потерями
    Размер потока : 410 Мбайт (1%)
    Заголовок : Русский АСЗ - ПМ (Позитив-Мультимедиа)
    Язык : Russian
    Default : Нет
    Forced : Нет
    Аудио #3
    Идентификатор : 4
    Формат : DTS
    Формат/Информация : Digital Theater Systems
    Профиль формата : MA / Core
    Режим : 16
    Параметр Endianness формата : Big
    Идентификатор кодека : A_DTS
    Продолжительность : 2 ч. 7 м.
    Вид битрейта : Переменный
    Битрейт : Неизвестно / 1509 Кбит/сек
    Каналы : 6 каналов
    Расположение каналов : Front: L C R, Side: L R, LFE
    Частота : 48,0 КГц
    Битовая глубина : 24 бит
    Метод сжатия : Без потерь / Lossy
    Заголовок : Русский DTS-HD MA - ПМ (Киномания)
    Язык : Russian
    Default : Нет
    Forced : Нет
    Аудио #4
    Идентификатор : 5
    Формат : DTS
    Формат/Информация : Digital Theater Systems
    Профиль формата : MA / Core
    Режим : 16
    Параметр Endianness формата : Big
    Идентификатор кодека : A_DTS
    Продолжительность : 2 ч. 7 м.
    Вид битрейта : Переменный
    Битрейт : Неизвестно / 1509 Кбит/сек
    Каналы : 6 каналов
    Расположение каналов : Front: L C R, Side: L R, LFE
    Частота : 48,0 КГц
    Битовая глубина : 24 бит
    Метод сжатия : Без потерь / Lossy
    Заголовок : Русский DTS-HD MA - ПМ (Карусель 1)
    Язык : Russian
    Default : Нет
    Forced : Нет
    Аудио #5
    Идентификатор : 6
    Формат : DTS
    Формат/Информация : Digital Theater Systems
    Профиль формата : MA / Core
    Режим : 16
    Параметр Endianness формата : Big
    Идентификатор кодека : A_DTS
    Продолжительность : 2 ч. 7 м.
    Вид битрейта : Переменный
    Битрейт : Неизвестно / 1509 Кбит/сек
    Каналы : 6 каналов
    Расположение каналов : Front: L C R, Side: L R, LFE
    Частота : 48,0 КГц
    Битовая глубина : 24 бит
    Метод сжатия : Без потерь / Lossy
    Заголовок : Русский DTS-HD MA - ПМ (Карусель 2)
    Язык : Russian
    Default : Нет
    Forced : Нет
    Аудио #6
    Идентификатор : 7
    Формат : DTS
    Формат/Информация : Digital Theater Systems
    Профиль формата : MA / Core
    Режим : 16
    Параметр Endianness формата : Big
    Идентификатор кодека : A_DTS
    Продолжительность : 2 ч. 7 м.
    Вид битрейта : Переменный
    Битрейт : Неизвестно / 1509 Кбит/сек
    Каналы : 6 каналов
    Расположение каналов : Front: L C R, Side: L R, LFE
    Частота : 48,0 КГц
    Битовая глубина : 24 бит
    Метод сжатия : Без потерь / Lossy
    Заголовок : Русский DTS-HD MA - АП (Сербин)
    Язык : Russian
    Default : Нет
    Forced : Нет
    Аудио #7
    Идентификатор : 8
    Формат : DTS
    Формат/Информация : Digital Theater Systems
    Профиль формата : MA / Core
    Режим : 16
    Параметр Endianness формата : Big
    Идентификатор кодека : A_DTS
    Продолжительность : 2 ч. 7 м.
    Вид битрейта : Переменный
    Битрейт : Неизвестно / 1509 Кбит/сек
    Каналы : 6 каналов
    Расположение каналов : Front: L C R, Side: L R, LFE
    Частота : 48,0 КГц
    Битовая глубина : 24 бит
    Метод сжатия : Без потерь / Lossy
    Заголовок : Русский DTS-HD MA - АП (Сербин (без песен))
    Язык : Russian
    Default : Нет
    Forced : Нет
    Аудио #8
    Идентификатор : 9
    Формат : DTS
    Формат/Информация : Digital Theater Systems
    Профиль формата : MA / Core
    Режим : 16
    Параметр Endianness формата : Big
    Идентификатор кодека : A_DTS
    Продолжительность : 2 ч. 7 м.
    Вид битрейта : Переменный
    Битрейт : Неизвестно / 1509 Кбит/сек
    Каналы : 6 каналов
    Расположение каналов : Front: L C R, Side: L R, LFE
    Частота : 48,0 КГц
    Битовая глубина : 24 бит
    Метод сжатия : Без потерь / Lossy
    Заголовок : Русский DTS-HD MA - АП (Кузнецов)
    Язык : Russian
    Default : Нет
    Forced : Нет
    Аудио #9
    Идентификатор : 10
    Формат : DTS
    Формат/Информация : Digital Theater Systems
    Профиль формата : MA / Core
    Режим : 16
    Параметр Endianness формата : Big
    Идентификатор кодека : A_DTS
    Продолжительность : 2 ч. 7 м.
    Вид битрейта : Переменный
    Битрейт : Неизвестно / 1509 Кбит/сек
    Каналы : 6 каналов
    Расположение каналов : Front: L C R, Side: L R, LFE
    Частота : 48,0 КГц
    Битовая глубина : 24 бит
    Метод сжатия : Без потерь / Lossy
    Заголовок : Русский DTS-HD MA - АП (Володарский)
    Язык : Russian
    Default : Нет
    Forced : Нет
    Аудио #10
    Идентификатор : 11
    Формат : DTS
    Формат/Информация : Digital Theater Systems
    Профиль формата : MA / Core
    Режим : 16
    Параметр Endianness формата : Big
    Идентификатор кодека : A_DTS
    Продолжительность : 2 ч. 7 м.
    Вид битрейта : Переменный
    Битрейт : Неизвестно / 1509 Кбит/сек
    Каналы : 6 каналов
    Расположение каналов : Front: L C R, Side: L R, LFE
    Частота : 48,0 КГц
    Битовая глубина : 24 бит
    Метод сжатия : Без потерь / Lossy
    Заголовок : Русский DTS-HD MA - АП (Рукин)
    Язык : Russian
    Default : Нет
    Forced : Нет
    Аудио #11
    Идентификатор : 12
    Формат : AC-3
    Формат/Информация : Audio Coding 3
    Расширение режима : CM (complete main)
    Параметр Endianness формата : Big
    Идентификатор кодека : A_AC3
    Продолжительность : 2 ч. 7 м.
    Вид битрейта : Постоянный
    Битрейт : 448 Кбит/сек
    Каналы : 6 каналов
    Расположение каналов : Front: L C R, Side: L R, LFE
    Частота : 48,0 КГц
    Битовая глубина : 16 бит
    Метод сжатия : С потерями
    Размер потока : 410 Мбайт (1%)
    Заголовок : Украинский - ПМ
    Язык : Ukrainian
    Default : Нет
    Forced : Нет
    Аудио #12
    Идентификатор : 13
    Формат : DTS
    Формат/Информация : Digital Theater Systems
    Профиль формата : MA / Core
    Режим : 16
    Параметр Endianness формата : Big
    Идентификатор кодека : A_DTS
    Продолжительность : 2 ч. 7 м.
    Вид битрейта : Переменный
    Битрейт : Неизвестно / 1509 Кбит/сек
    Каналы : 6 каналов
    Расположение каналов : Front: L C R, Side: L R, LFE
    Частота : 48,0 КГц
    Битовая глубина : 24 бит
    Метод сжатия : Без потерь / Lossy
    Заголовок : Английский DTS-HD MA - Оригинал
    Язык : English
    Default : Нет
    Forced : Нет
    Текст #1
    Идентификатор : 14
    Формат : UTF-8
    Идентификатор кодека : S_TEXT/UTF8
    Идентификатор кодека/Информация : UTF-8 Plain Text
    Заголовок : Русские
    Язык : Russian
    Default : Нет
    Forced : Нет
    Текст #2
    Идентификатор : 15
    Формат : UTF-8
    Идентификатор кодека : S_TEXT/UTF8
    Идентификатор кодека/Информация : UTF-8 Plain Text
    Заголовок : Русские - (песни)
    Язык : Russian
    Default : Да
    Forced : Нет
    Текст #3
    Идентификатор : 16
    Формат : UTF-8
    Идентификатор кодека : S_TEXT/UTF8
    Идентификатор кодека/Информация : UTF-8 Plain Text
    Заголовок : Английские
    Язык : English
    Default : Нет
    Forced : Нет
    Меню
    00:00:00.000 : en:MAIN TITLES
    00:01:19.079 : en:THERE WAS A BOY...
    00:05:32.666 : en:MEET THE BOHEMIANS
    00:10:47.355 : en:AT THE MOULIN ROUGE "YOU'LL HAVE FUN"
    00:13:05.785 : en:THE CAN CAN (BOHOS EVADE ZIDLER)
    00:14:12.143 : en:SATINE - THE SPARKING DIAMOND
    00:21:02.511 : en:SATINE FALLS
    00:25:07.756 : en:A POETRY READING
    00:27:36.029 : en:YOUR SONG
    00:31:24.633 : en:INTRODUCING THE DUKE
    00:35:46.478 : en:THE EMERGENCY REHERSAL
    00:40:06.571 : en:THE PITCH
    00:44:31.919 : en:ONE DAY I'LL FLY AWAY
    00:48:46.382 : en:ELEPHANT LOVE MEDLEY
    00:53:28.789 : en:THE CONTRACT
    00:55:08.013 : en:ON WITH THE SHOW
    00:57:44.044 : en:THE DUKE'S DEMAND
    00:59:36.281 : en:A DARKER FORCE
    01:01:25.765 : en:LIKE A VIRGIN
    01:05:43.606 : en:SATIN IS DYING
    01:08:01.577 : en:COME WHAT MAY
    01:12:44.277 : en:I DON'T LIKE THIS ENDING
    01:18:08.726 : en:LE TANGO DE ROXANNE
    01:25:32.586 : en:WE'LL LIVE TINIGHT
    01:27:09.182 : en:I'LL HAVE THE BOY KILLED
    01:29:50.010 : en:FOOL TO BELIVE
    01:32:02.475 : en:THE SHOW MUST GO ON
    01:34:57.150 : en:SATINE'S SACRIFICE
    01:36:20.775 : en:THE STORM BREAKS
    01:38:50.341 : en:HINDI SAD DIAMONDS
    01:42:24.597 : en:THIS WOMAN IS YOURS NOW
    01:47:45.459 : en:COME WHAT MAY (REPRISE)
    01:51:32.895 : en:COUP D'ETAT
    01:53:21.294 : en:THE FINAL CURTAIN
    01:58:41.156 : en:ABOVE ALL THINGS... LOVE
    02:00:24.050 : en:END TITLES

    Release was prepared by 60-fps.org

  2. Longevity:
    4 years 3 months
    Posts:
    110
    Gender:
    Male
    720p будет?
    20-Aug-2017 21:05 (after 3 hours)
  3. Longevity:
    6 years 4 months
    Posts:
    2414
    Gender:
    Male
    8324720p будет?
    будет
    20-Aug-2017 22:00 (after 54 minutes)
  4. Longevity:
    4 years 7 months
    Posts:
    11
    Gender:
    Unknown
    Поцелуй Молюсь Молюсь
    01-Sep-2017 11:04 (after 11 days)
  5. Longevity:
    4 years 3 months
    Posts:
    110
    Gender:
    Male
    Субтитры с переводом песен присутствуют не для всех песен. :(
    08-Dec-2017 12:03 (after 3 months 7 days)
  6. Longevity:
    3 years 4 months
    Posts:
    3
    Gender:
    Male
    Отличный фильм, спасибо. С огромным удовольствием посмотрю 100500 раз.
    02-Jan-2018 00:11 (after 24 days)
  7. Longevity:
    2 years 6 months
    Posts:
    1
    Gender:
    Unknown
    torre nt not working
    11-Aug-2018 09:58 (after 7 months 9 days)


You cannot post new topics in this forum
You cannot reply to topics in this forum
You cannot edit your posts in this forum
You cannot delete your posts in this forum
You cannot vote in polls in this forum
You cannot attach files in this forum
You cannot download files in this forum