Первому игроку приготовиться / Ready Player One (2018) BDRip 1080p | 60 fps Радиус / Radius (2017) BDRip 720p | 60 fps Дэдпул 2 / Deadpool 2 (2018) BDRip 1080p | 60 fps Такси 5 / Taxi 5 (2018) BDRip 1080p | 60 fps Тихое место / A Quiet Place (2018) BDRip 720p | 60 fps 10 на 10 / 10x10 (2018) BDRip 720p | 60 fps Первому игроку приготовиться / Ready Player One (2018) BDRip 720p | 60 fps Рэмпейдж / Rampage (2018) BDRip 720p | 60 fps
  1. Стаж:
    3 года 10 месяцев
    Сообщений:
    2396
    Пол:
    Мужской
    «An entire universe. Once and for all» Информация
    Название: Шерлок Гномс
    Оригинальное название: Sherlock Gnomes
    Год выхода: 2018
    Жанр: Фантастика, фэнтези, боевик, приключения
    Режиссер: Энтони Руссо, Джо Руссо
    Сценарий: Кристофер Маркус, Стивен МакФили
    Продюсер: Виктория Алонсо, Митчелл Белл
    В ролях: Роберт Дауни мл., Крис Хемсворт, Марк Руффало, Крис Эванс, Скарлетт Йоханссон, Дон Чидл, Бенедикт Камбербэтч, Том Холланд (II), Чэдвик Боузмэн, Зои Салдана

    Сюжет:
    Пока Мстители и их союзники продолжают защищать мир от различных опасностей, с которыми не смог бы справиться один супергерой, новая угроза возникает из космоса: Танос. Межгалактический тиран преследует цель собрать все шесть Камней Бесконечности — артефакты невероятной силы, с помощью которых можно менять реальность по своему желанию. Всё, с чем Мстители сталкивались ранее, вело к этому моменту — судьба Земли никогда ещё не была столь неопределённой.

    Страна: Великобритания, США
    Продолжительность: 02:29:41

    Файл
    Кодек: H.264
    Формат: MKV
    Качество: BDRip 1080p | 60 fps
    Видео: 1920 x 804 (2.388) | 59.940 fps | 25.0 Мбит/сек
    Аудио 01: AC3 | 5.1 | 48 kHz | 384 kbps | 16 bit | Дубляж - iTunes |
    Аудио 02: DTS | 5.1 | 48 kHz | 1510 kbps | 24 bit | english |
    Субтитры: Русские (forced, full, SDH), английские

    MedifInfo

    Видео
    Идентификатор : 1
    Формат : AVC
    Формат/Информация : Advanced Video Codec
    Профиль формата : Main@L4.1
    Настройки формата : CABAC / 4 Ref Frames
    Параметр CABAC формата : Да
    Параметр RefFrames формата : 4 кадра
    Режим смешивания : Header stripping
    Идентификатор кодека : V_MPEG4/ISO/AVC
    Продолжительность : 2 ч. 29 м.
    Битрейт : 25,0 Мбит/сек
    Ширина : 1920 пикселей
    Высота : 804 пикселя
    Соотношение сторон : 2,40:1
    Режим частоты кадров : Постоянный
    Частота кадров : 59,940 (60000/1001) кадров/сек
    Цветовое пространство : YUV
    Субдискретизация насыщенности : 4:2:0
    Битовая глубина : 8 бит
    Тип развёртки : Прогрессивная
    Бит/(Пиксели*Кадры) : 0.270
    Размер потока : 25,5 Гбайт (91%)
    Заголовок : www.60-fps.org
    Библиотека кодирования : x264 core 155 r2901 7d0ff22
    Настройки программы : cabac=1 / ref=3 / deblock=1:-3:-3 / analyse=0x1:0x111 / me=hex / subme=7 / psy=1 / psy_rd=1.00:0.25 / mixed_ref=1 / me_range=16 / chroma_me=1 / trellis=1 / 8x8dct=0 / cqm=0 / deadzone=6,6 / fast_pskip=1 / chroma_qp_offset=-4 / threads=12 / lookahead_threads=2 / sliced_threads=0 / nr=0 / decimate=0 / interlaced=0 / bluray_compat=0 / constrained_intra=0 / bframes=3 / b_pyramid=2 / b_adapt=1 / b_bias=0 / direct=1 / weightb=1 / open_gop=0 / weightp=2 / keyint=599 / keyint_min=59 / scenecut=40 / intra_refresh=0 / rc_lookahead=40 / rc=2pass / mbtree=1 / bitrate=24999 / ratetol=1.0 / qcomp=0.80 / qpmin=0 / qpmax=69 / qpstep=4 / cplxblur=20.0 / qblur=0.5 / vbv_maxrate=50000 / vbv_bufsize=62500 / nal_hrd=none / filler=0 / ip_ratio=1.10 / aq=1:0.50
    Default : Да
    Forced : Нет
    Аудио #1
    Идентификатор : 2
    Формат : AC-3
    Формат/Информация : Audio Coding 3
    Режим смешивания : Header stripping
    Идентификатор кодека : A_AC3
    Продолжительность : 2 ч. 29 м.
    Вид битрейта : Постоянный
    Битрейт : 384 Кбит/сек
    Каналы : 6 каналов
    Расположение каналов : Front: L C R, Side: L R, LFE
    Частота : 48,0 КГц
    Частота кадров : 31,250 кадров/сек (1536 SPF)
    Битовая глубина : 16 бит
    Метод сжатия : С потерями
    Размер потока : 411 Мбайт (1%)
    Заголовок : Дубляж - iTunes
    Язык : Russian
    ServiceKind/String : Complete Main
    Default : Да
    Forced : Нет
    Аудио #2
    Идентификатор : 3
    Формат : DTS
    Формат/Информация : Digital Theater Systems
    Режим смешивания : Header stripping
    Идентификатор кодека : A_DTS
    Продолжительность : 2 ч. 29 м.
    Вид битрейта : Постоянный
    Битрейт : 1509 Кбит/сек
    Каналы : 6 каналов
    Расположение каналов : Front: L C R, Side: L R, LFE
    Частота : 48,0 КГц
    Частота кадров : 93,750 кадра/сек (512 SPF)
    Битовая глубина : 24 бит
    Метод сжатия : С потерями
    Размер потока : 1,58 Гбайт (6%)
    Заголовок : Original
    Язык : English
    Default : Нет
    Forced : Нет
    Текст #1
    Идентификатор : 4
    Формат : UTF-8
    Идентификатор кодека : S_TEXT/UTF8
    Идентификатор кодека/Информация : UTF-8 Plain Text
    Заголовок : Forced
    Язык : Russian
    Default : Да
    Forced : Да
    Текст #2
    Идентификатор : 5
    Формат : UTF-8
    Идентификатор кодека : S_TEXT/UTF8
    Идентификатор кодека/Информация : UTF-8 Plain Text
    Заголовок : Full
    Язык : Russian
    Default : Нет
    Forced : Нет
    Текст #3
    Идентификатор : 6
    Формат : UTF-8
    Идентификатор кодека : S_TEXT/UTF8
    Идентификатор кодека/Информация : UTF-8 Plain Text
    Заголовок : SDH
    Язык : Russian
    Default : Нет
    Forced : Нет
    Текст #4
    Идентификатор : 7
    Формат : UTF-8
    Идентификатор кодека : S_TEXT/UTF8
    Идентификатор кодека/Информация : UTF-8 Plain Text
    Заголовок : Full
    Язык : English
    Default : Нет
    Forced : Нет
    Текст #5
    Идентификатор : 8
    Формат : UTF-8
    Идентификатор кодека : S_TEXT/UTF8
    Идентификатор кодека/Информация : UTF-8 Plain Text
    Заголовок : SDH
    Язык : English
    Default : Нет
    Forced : Нет
    Текст #6
    Идентификатор : 9
    Формат : UTF-8
    Идентификатор кодека : S_TEXT/UTF8
    Идентификатор кодека/Информация : UTF-8 Plain Text
    Заголовок : SDH Colored
    Язык : English
    Default : Нет
    Forced : Нет
    Меню
    00:00:00.000 : en:00:00:00.000
    00:11:28.730 : en:00:11:28.730
    00:18:13.884 : en:00:18:13.884
    00:27:23.809 : en:00:27:23.809
    00:35:48.813 : en:00:35:48.813
    00:42:23.541 : en:00:42:23.541
    00:54:12.875 : en:00:54:12.875
    00:59:36.740 : en:00:59:36.740
    01:05:07.153 : en:01:05:07.153
    01:10:53.666 : en:01:10:53.666
    01:17:06.956 : en:01:17:06.956
    01:24:14.758 : en:01:24:14.758
    01:31:08.004 : en:01:31:08.004
    01:42:00.406 : en:01:42:00.406
    01:45:57.810 : en:01:45:57.810
    01:53:04.069 : en:01:53:04.069
    01:58:52.917 : en:01:58:52.917
    02:03:58.181 : en:02:03:58.181
    02:11:13.282 : en:02:11:13.282
    02:17:31.285 : en:02:17:31.285

    Релиз подготовлен 60 - fps

  2. Стаж:
    3 месяца 23 дня
    Сообщений:
    2
    Пол:
    Не указан
    отдуши чел
    05-Авг-2018 19:45 (спустя 2 дня 12 часов)


Вы не можете начинать темы
Вы не можете отвечать на сообщения
Вы не можете редактировать свои сообщения
Вы не можете удалять свои сообщения
Вы не можете голосовать в опросах
Вы не можете прикреплять файлы к сообщениям
Вы не можете скачивать файлы