[Цитировать]
envy

Информация о фильме
Русское название: Мстители
Оригинальное название: The Avengers
Год выхода: 2012
Жанр: фантастика, фэнтези, боевик, приключения
Режиссер: Джосс Уидон
Выпущено: США
Продолжительность: 02:22:54
Перевод: Дублированный
В ролях: Роберт Дауни мл., Крис Эванс, Марк Руффало, Крис Хемсворт, Скарлетт Йоханссон, Джереми Реннер, Том Хиддлстон, Сэмюэл Л. Джексон, Кларк Грегг, Коби Смолдерс, Стеллан Скарсгард, Гвинет Пэлтроу, Пол Беттани, Алексис Денисоф, Тина Бенко, Ежи Сколимовский, Кирилл Никифоров, Джефф Вульф, М’лаа Каур Синх, Рашми Рустаги, Пауэрс Бут, Дженни Агаттер, Артур Дарбинян, Дональд Ли, Ивэн Коул, Алисия Сикстос, Джесси Гарсиа, Максимилианно Эрнандез, Дитер Рисл, Кеннет Тайгар-Сюжет фильма
Локи, сводный брат Тора, возвращается, и в этот раз он не один. Земля на грани порабощения, и только лучшие из лучших могут спасти человечество. Ник Фьюри, глава международной организации Щ. И. Т., собирает выдающихся поборников справедливости и добра, чтобы отразить атаку. Под предводительством Капитана Америки Железный Человек, Тор, Невероятный Халк, Хоукай и Чёрная Вдова вступают в войну с захватчиком.-Файл
Качество: BDRip 720p (исходник Blu-ray Disc Remux)
Видео: 1280x720, 6169 Кбит/сек, 59.940 кадр/сек, AVC, x264, High@L4.0, 16:9, 0.112 Бит/[Пиксели*Кадры]
Аудио 1: AC-3, 640 Кбит/сек, 6 канала(ов), 48,0 КГц - Дублированный / Русский
Аудио 2: AC-3, 448 Кбит/сек, 6 канала(ов), 48,0 КГц - Оригинал / Английский
Субтитры: Русские | Полные, Английские | Полные
Форсированные субтитры: Русские
Чаптеры (Главы): Есть-

MediaInfo

Format : Matroska
Format version : Version 2
File size : 7.39 GiB
Duration : 2h 22mn
Overall bit rate : 7 404 Kbps
Movie name : Мстители.(2012).BDRip.720p.[envy].[60fps]
Encoded date : UTC 2015-05-21 20:10:44
Writing application : mkvmerge v5.8.0 ('No Sleep / Pillow') built on Sep 2 2012 15:37:04
Writing library : libebml v1.2.3 + libmatroska v1.3.0
Video
ID : 1
Format : AVC
Format/Info : Advanced Video Codec
Format profile : High@L4.0
Format settings, CABAC : Yes
Format settings, ReFrames : 9 frames
Codec ID : V_MPEG4/ISO/AVC
Duration : 2h 22mn
Bit rate : 6 169 Kbps
Width : 1 280 pixels
Height : 720 pixels
Display aspect ratio : 16:9
Frame rate mode : Constant
Frame rate : 59.880 fps
Original frame rate : 59.940 fps
Color space : YUV
Chroma subsampling : 4:2:0
Bit depth : 8 bits
Scan type : Progressive
Bits/(Pixel*Frame) : 0.112
Stream size : 6.16 GiB (83%)
Title : Мстители.(2012).BDRip.720p.[envy].[60fps]
Writing library : x264 core 130 r2273 b3065e6
Encoding settings : cabac=1 / ref=9 / deblock=1:0:0 / analyse=0x3:0x113 / me=umh / subme=11 / psy=1 / psy_rd=1.00:0.00 / mixed_ref=1 / me_range=24 / chroma_me=1 / trellis=2 / 8x8dct=1 / cqm=0 / deadzone=21,11 / fast_pskip=0 / chroma_qp_offset=-2 / threads=12 / lookahead_threads=1 / sliced_threads=0 / nr=0 / decimate=1 / interlaced=0 / bluray_compat=0 / constrained_intra=0 / bframes=5 / b_pyramid=2 / b_adapt=2 / b_bias=0 / direct=3 / weightb=1 / open_gop=0 / weightp=2 / keyint=250 / keyint_min=25 / scenecut=40 / intra_refresh=0 / rc=crf / mbtree=0 / crf=17.0 / qcomp=0.60 / qpmin=0 / qpmax=69 / qpstep=4 / ip_ratio=1.40 / pb_ratio=1.30 / aq=2:1.00
Language : English
Default : Yes
Forced : No
Audio #1
ID : 2
Format : AC-3
Format/Info : Audio Coding 3
Mode extension : CM (complete main)
Format settings, Endianness : Big
Codec ID : A_AC3
Duration : 2h 22mn
Bit rate mode : Constant
Bit rate : 640 Kbps
Channel(s) : 6 channels
Channel positions : Front: L C R, Side: L R, LFE
Sampling rate : 48.0 KHz
Bit depth : 16 bits
Compression mode : Lossy
Stream size : 654 MiB (9%)
Title : Dub
Language : Russian
Default : Yes
Forced : No
Audio #2
ID : 3
Format : AC-3
Format/Info : Audio Coding 3
Mode extension : CM (complete main)
Format settings, Endianness : Big
Codec ID : A_AC3
Duration : 2h 22mn
Bit rate mode : Constant
Bit rate : 448 Kbps
Channel(s) : 6 channels
Channel positions : Front: L C R, Side: L R, LFE
Sampling rate : 48.0 KHz
Bit depth : 16 bits
Compression mode : Lossy
Stream size : 458 MiB (6%)
Title : Eng
Language : English
Default : No
Forced : No
Text #1
ID : 4
Format : UTF-8
Codec ID : S_TEXT/UTF8
Codec ID/Info : UTF-8 Plain Text
Title : Rus forced
Language : Russian
Default : Yes
Forced : Yes
Text #2
ID : 5
Format : UTF-8
Codec ID : S_TEXT/UTF8
Codec ID/Info : UTF-8 Plain Text
Title : Rus full
Language : Russian
Default : No
Forced : No
Text #3
ID : 6
Format : UTF-8
Codec ID : S_TEXT/UTF8
Codec ID/Info : UTF-8 Plain Text
Title : Eng full
Language : English
Default : No
Forced : No
Menu
00:00:00.000 : :Chapter 01
00:08:02.315 : :Chapter 02
00:11:49.166 : :Chapter 03
00:15:18.751 : :Chapter 04
00:20:33.482 : :Chapter 05
00:23:04.257 : :Chapter 06
00:29:39.444 : :Chapter 07
00:37:23.991 : :Chapter 08
00:42:47.982 : :Chapter 09
00:50:22.269 : :Chapter 10
01:01:04.661 : :Chapter 11
01:14:05.107 : :Chapter 12
01:28:01.234 : :Chapter 13
01:38:20.561 : :Chapter 14
01:45:40.167 : :Chapter 15
01:51:15.085 : :Chapter 16
01:57:47.769 : :Chapter 17
02:04:38.679 : :Chapter 18
02:09:39.396 : :Chapter 19
02:13:10.691 : :Chapter 20
02:22:54.649 : :Chapter 21

[Цитировать]
envy

Какой же это геморой с тегом: thumbnails ....

[Цитировать]
Kryl

2667Какой же это геморой с тегом: thumbnails ....
Это в первый раз так )

[Цитировать]
envy

2668Это в первый раз так )
Так вот ели бы была возможность редактировать темы.. то да... просто по собственному шаблону бери да меняй...

[Цитировать]
kamikkadze

2670
2668Это в первый раз так )
Так вот ели бы была возможность редактировать темы.. то да... просто по собственному шаблону бери да меняй...
так в правом углу нажимаешь обычная раздача,далее вставляешь свой шаблон

[Цитировать]
envy

2671так в правом углу нажимаешь обычная раздача,далее вставляешь свой шаблон
Я про то что тег thumbnails не удобно вставлять.

[Цитировать]
Kryl

Кнопка ЭСКИЗ что трудного ? Выделить ссылку на картинку и нажать кнопочку ЭСКИЗ ...

[Цитировать]
envy

KRYL, в моём шаблоне просто-превью на картинки.
А так как редактировать темы не плуяается, приходится по новой подписывать..)))

[Цитировать]
ghuman1990

Качество просто супер, спасибо за такой фильм.

[Цитировать]
thoughtseize

Дайте скорости))) Плачу Плачу
 
Показать сообщения:    

Текущее время: 07-Дек 19:23

Часовой пояс: UTC + 3


Вы не можете начинать темы
Вы не можете отвечать на сообщения
Вы не можете редактировать свои сообщения
Вы не можете удалять свои сообщения
Вы не можете голосовать в опросах
Вы не можете прикреплять файлы к сообщениям
Вы не можете скачивать файлы