[Цитировать]
mimok

Мстители: Эра Альтрона / Avengers: Age of Ultron (2015) BDRip 720p | 60fps«A new age begins»- Информация о фильме
Название: Мстители: Эра Альтрона
Оригинальное название: Avengers: Age of Ultron
Год выхода: 2015
Жанр: Фантастика, боевик, приключения
Режиссер: Джосс Уидон
Продюсер: Кевин Файги, Виктория Алонсо, Митчелл Белл
В ролях: Роберт Дауни мл., Крис Хемсворт, Крис Эванс, Скарлетт Йоханссон, Марк Руффало, Джереми Реннер, Аарон Тейлор-Джонсон, Элизабет Олсен, Джеймс Спэйдер, Сэмюэл Л. Джексон
Описание фильма:
Человечество на грани уничтожения. На этот раз людям угрожает Альтрон — искусственный интеллект, ранее созданный для того, чтобы защищать Землю от любых угроз. Однако, главной угрозой он посчитал человечество. Международная организация Щ. И. Т. распалась, и теперь мир не способен справиться с таким мощным врагом, потому люди вновь обращаются за помощью к Величайшим Героям Земли — Мстителям. Однако Альтрон слишком силен, и есть большая вероятность, что даже им не удастся остановить начало надвигающейся Эры Альтрона, где нет места для людей…
Страна: США
Студия: Marvel Studios Inc.
Продолжительность: 02:21:18
Перевод: Дублированный (BD CEE)
Субтитры: Вшитые, отключаемые
Язык субтитров: Русский (Full), Английский (Full)

Дата мировой премьеры: 13 апреля 2015
Дата российской премьеры: 23 апреля 2015, «WDSSPR»
Дата выхода DVD/Blu-Ray релиза: 2 октября 2015, «Уолт Дисней Компани СНГ»
Файл
Формат: MKV
Кодек: MPEG-4 AVC/H.264
Качество: BDRip 720p
Видео: ~ 6746 Кбит/сек, 1280 x 544, 59.940 кадров/сек
Аудио#1: AC3 5.1, 48.0 KHz, 640 Кбит/сек - Русский (BlueBird)
Аудио#2: AC3 5.1, 48.0 KHz, 640 Кбит/сек - Русский (Blu-ray CEE)

MediaInfo

Общее
Уникальный идентификатор : 192187070490324321936801384982612264464 (0x9095E226615E61A5835CA90CD12FC610)
Полное имя : D:\Торренты\Avengers. Age of Ultron 60fps.mkv
Формат : Matroska
Версия формата : Version 2
Размер файла : 8,08 Гбайт
Продолжительность : 2 ч. 21 м.
Общий поток : 8189 Кбит/сек
Название фильма : Avengers: Age of Ultron (2015) Blu-ray CEE 1080p
Дата кодирования : UTC 2015-09-17 18:56:12
Программа кодирования : mkvmerge v6.9.1 ('Blue Panther') 64bit built on Apr 18 2014 18:23:38
Библиотека кодирования : libebml v1.3.0 + libmatroska v1.4.1
Видео
Идентификатор : 1
Формат : AVC
Формат/Информация : Advanced Video Codec
Профиль формата : High@L4.1
Параметр CABAC формата : Да
Параметр ReFrames формата : 6 кадров
Идентификатор кодека : V_MPEG4/ISO/AVC
Продолжительность : 2 ч. 21 м.
Битрейт : 6746 Кбит/сек
Ширина : 1280 пикселей
Высота : 544 пикселя
Соотношение сторон : 2,35:1
Режим частоты кадров : Постоянный
Частота кадров : 59,880 кадров/сек
Частота кадров в оригинале : 59,940 кадров/сек
Цветовое пространство : YUV
Субдискретизация насыщенности : 4:2:0
Битовая глубина : 8 бит
Тип развёртки : Прогрессивная
Бит/(Пиксели*Кадры) : 0.162
Размер потока : 6,66 Гбайт (82%)
Заголовок : Release by mimok
Библиотека кодирования : x264 core 130 r2273 b3065e6
Настройки программы : cabac=1 / ref=6 / deblock=1:0:0 / analyse=0x3:0x133 / me=umh / subme=8 / psy=1 / psy_rd=1.00:0.15 / mixed_ref=1 / me_range=20 / chroma_me=1 / trellis=2 / 8x8dct=1 / cqm=0 / deadzone=21,11 / fast_pskip=0 / chroma_qp_offset=-3 / threads=6 / lookahead_threads=2 / sliced_threads=0 / nr=0 / decimate=0 / interlaced=0 / bluray_compat=0 / constrained_intra=0 / bframes=8 / b_pyramid=2 / b_adapt=2 / b_bias=0 / direct=1 / weightb=1 / open_gop=0 / weightp=2 / keyint=250 / keyint_min=25 / scenecut=40 / intra_refresh=0 / rc=crf / mbtree=0 / crf=18.0 / qcomp=0.63 / qpmin=10 / qpmax=51 / qpstep=4 / ip_ratio=1.40 / pb_ratio=1.30 / aq=1:1.20
Default : Да
Forced : Нет
Аудио #1
Идентификатор : 2
Формат : AC-3
Формат/Информация : Audio Coding 3
Расширение режима : CM (complete main)
Параметр Endianness формата : Big
Идентификатор кодека : A_AC3
Продолжительность : 2 ч. 21 м.
Вид битрейта : Постоянный
Битрейт : 640 Кбит/сек
Каналы : 6 каналов
Расположение каналов : Front: L C R, Side: L R, LFE
Частота : 48,0 КГц
Битовая глубина : 16 бит
Метод сжатия : С потерями
Размер потока : 647 Мбайт (8%)
Заголовок : BlueBird
Язык : Russian
Default : Да
Forced : Нет
Аудио #2
Идентификатор : 3
Формат : AC-3
Формат/Информация : Audio Coding 3
Расширение режима : CM (complete main)
Параметр Endianness формата : Big
Идентификатор кодека : A_AC3
Продолжительность : 2 ч. 21 м.
Вид битрейта : Постоянный
Битрейт : 640 Кбит/сек
Каналы : 6 каналов
Расположение каналов : Front: L C R, Side: L R, LFE
Частота : 48,0 КГц
Битовая глубина : 16 бит
Метод сжатия : С потерями
Размер потока : 647 Мбайт (8%)
Заголовок : Blu-ray CEE
Язык : Russian
Default : Нет
Forced : Нет
Текст #1
Идентификатор : 4
Формат : UTF-8
Идентификатор кодека : S_TEXT/UTF8
Идентификатор кодека/Информация : UTF-8 Plain Text
Заголовок : full
Язык : Russian
Default : Да
Forced : Нет
Текст #2
Идентификатор : 5
Формат : UTF-8
Идентификатор кодека : S_TEXT/UTF8
Идентификатор кодека/Информация : UTF-8 Plain Text
Заголовок : full
Язык : English
Default : Нет
Forced : Нет

Скринлист

Скриншоты:

Релиз подготовлен 60 - fps

[60-fps.org].t1087.torrent
Торрент: Зарегистрирован [ 2015-09-20 14:17 ] · 5F7E787BDA1F1477F2AE8E154E7E667F2406ECC4

Скачать .torrent

Скачать

41 KB

Статус: проверено
Скачан: 37 раз
Поблагодарили:
Размер: 8,08 GB
 
Похожие Темы

[Цитировать]
Kryl

А почему в этот раздел ?

[Цитировать]
mimok

3731А почему в этот раздел ?
Попытался убрать артефакты, получилось. Но плавность пострадала, потому и залил в этот раздел.
 
Показать сообщения:    

Текущее время: 22-Фев 16:24

Часовой пояс: UTC + 3


Вы не можете начинать темы
Вы не можете отвечать на сообщения
Вы не можете редактировать свои сообщения
Вы не можете удалять свои сообщения
Вы не можете голосовать в опросах
Вы не можете прикреплять файлы к сообщениям
Вы можете скачивать файлы