[Цитировать]
mimok

Мрачные тени / Dark Shadows (2012) BDRip 720p | 60fps«В семье не без вампира»- Год выпуска: 2012
Производство: США, Австралия / Warner Bros. Pictures, Village Roadshow Pictures
Жанр: Фэнтези, Мелодрама, Комедия-Режиссер: Тим Бёртон
Продюсер: Кристи Дембровски, Джонни Депп, Дэвид Кеннеди
Актеры: Джонни Депп, Мишель Пфайффер, Хелена Бонем Картер, Ева Грин, Джеки Эрл Хейли, Джонни Ли Миллер, Белла Хиткот, Хлоя Грейс Морец, Гулливер МакГрат-Описание фильма:
Владелец поместья Коллинвуд, Барнабас Коллинз, богат, властен и слывет неисправимым Казановой, пока не совершает роковую ошибку, разбив сердце Анжелики Бошар. Будучи ведьмой в буквальном смысле этого слова, она обрекает его на судьбу, худшую, чем сама смерть — обращает его в вампира и хоронит заживо. Два века спустя Барнабаса случайно освобождают из склепа, и тот оказывается в очень изменившемся мире 1972 года. Он возвращается в Коллинвуд и находит в руинах это некогда величественное здание. Жалкие потомки его семьи сохранились лишь немногим лучше родового гнезда, и у каждого из них есть свои «скелеты в шкафу».-Перевод: Дублированный (Лицензия)
Субтитры: Вшитые,Не отключаемые Forsed
Язык субтитров: Русский- -Дата мировой премьеры: 9 мая 2012
Дата российской премьеры: 10 мая 2012, «Каро-Премьер»
Дата выхода DVD релиза: 4 октября 2012, «CP Дистрибуция»
Дата выхода Blu-Ray релиза: 4 октября 2012, «CP Дистрибуция»-Продолжительность: 01:53:05
Качество видео: BDRip 720p-Видеокодек: MPEG-4 AVC/H.264
Битрейт видео: ~ 9934 Кбит/сек
Размер кадра: 1280 x 720
Аудио: AC3 5.1, 48.0 KHz, 448 Kbps - Русский-MediaInfo:
Общее
Уникальный идентификатор : 219268900798933426741047812627691026560 (0xA4F5A7792312CFAEB1874734D1013880)
Полное имя : D:\Торренты\Dark Shadows 60fps.org.mkv
Формат : Matroska
Версия формата : Version 2
Размер файла : 8,37 Гбайт
Продолжительность : 1 ч. 53 м.
Общий поток : 10,6 Мбит/сек
Название фильма : Dark Shadows (2012) BDRemux 1080p
Дата кодирования : UTC 2014-10-19 06:45:52
Программа кодирования : mkvmerge v6.9.1 ('Blue Panther') 64bit built on Apr 18 2014 18:23:38
Библиотека кодирования : libebml v1.3.0 + libmatroska v1.4.1
Видео
Идентификатор : 1
Формат : AVC
Формат/Информация : Advanced Video Codec
Профиль формата : High@L4.1
Параметр CABAC формата : Да
Параметр ReFrames формата : 6 кадров
Идентификатор кодека : V_MPEG4/ISO/AVC
Продолжительность : 1 ч. 53 м.
Битрейт : 9934 Кбит/сек
Ширина : 1280 пикселей
Высота : 720 пикселей
Соотношение сторон : 16:9
Режим частоты кадров : Постоянный
Частота кадров : 59,880 кадров/сек
Частота кадров в оригинале : 59,940 кадров/сек
Цветовое пространство : YUV
Субдискретизация насыщенности : 4:2:0
Битовая глубина : 8 бит
Тип развёртки : Прогрессивная
Бит/(Пиксели*Кадры) : 0.180
Размер потока : 7,85 Гбайт (94%)
Заголовок : Release by mimok
Библиотека кодирования : x264 core 125 r2208 d9d2288
Настройки программы : cabac=1 / ref=6 / deblock=0:0:0 / analyse=0x3:0x133 / me=umh / subme=8 / psy=1 / psy_rd=1.00:0.15 / mixed_ref=1 / me_range=20 / chroma_me=1 / trellis=2 / 8x8dct=1 / cqm=0 / deadzone=21,11 / fast_pskip=0 / chroma_qp_offset=-3 / threads=6 / lookahead_threads=1 / sliced_threads=0 / nr=0 / decimate=0 / interlaced=0 / bluray_compat=0 / constrained_intra=0 / bframes=8 / b_pyramid=2 / b_adapt=2 / b_bias=0 / direct=1 / weightb=1 / open_gop=0 / weightp=2 / keyint=600 / keyint_min=59 / scenecut=40 / intra_refresh=0 / rc=crf / mbtree=0 / crf=17.0 / qcomp=0.63 / qpmin=10 / qpmax=51 / qpstep=4 / ip_ratio=1.40 / pb_ratio=1.30 / aq=1:1.20
Default : Да
Forced : Нет
Аудио
Идентификатор : 2
Формат : AC-3
Формат/Информация : Audio Coding 3
Расширение режима : CM (complete main)
Параметр Endianness формата : Big
Идентификатор кодека : A_AC3
Продолжительность : 1 ч. 53 м.
Вид битрейта : Постоянный
Битрейт : 448 Кбит/сек
Каналы : 6 каналов
Расположение каналов : Front: L C R, Side: L R, LFE
Частота : 48,0 КГц
Битовая глубина : 16 бит
Метод сжатия : С потерями
Размер потока : 362 Мбайт (4%)
Заголовок : Лицензия!
Язык : Russian
Default : Да
Forced : Нет
Скринлист:
Скриншоты:

[Цитировать]
VinceRage

Скачан: 0 раз
Встаньте на раздачу, пожалуйста)

[Цитировать]
mimok

на раздаче

[Цитировать]
Вадим Нагибин

встаньте на раздачу, пожалуйста)

[Цитировать]
Kryl

7102встаньте на раздачу, пожалуйста)
вверху есть кнопка ПОЗВАТЬ СКАЧАВШИХ .

[Цитировать]
Вадим Нагибин

7103
7102встаньте на раздачу, пожалуйста)
вверху есть кнопка ПОЗВАТЬ СКАЧАВШИХ .
не знал.. спасибо)
 
Показать сообщения:    

Текущее время: 19-Окт 04:46

Часовой пояс: UTC + 3


Вы не можете начинать темы
Вы не можете отвечать на сообщения
Вы не можете редактировать свои сообщения
Вы не можете удалять свои сообщения
Вы не можете голосовать в опросах
Вы не можете прикреплять файлы к сообщениям
Вы не можете скачивать файлы