Чёрная Пантера / Black Panther (2018) BDRip 1080p | 60 fps Ночные игры / Game Night (2018) BDRip 720p | 60 fps Тихоокеанский рубеж 2 / Pacific Rim: Uprising (2018) BDRip 1080p | 60 fps Ограбление в ураган / The Hurricane Heist (2018) BDRip 720p | 60 fps Чёрная Пантера / Black Panther (2018) BDRip 720p | 60 fps Красный воробей / Red Sparrow (2018) BDRip 720p | 60 fps Я худею (2018) BDRip 1080p | 60 FPS Поезд на Париж / The 15:17 to Paris (2018) BDRip 720p | 60 fps
  1. Стаж:
    1 год 9 месяцев
    Сообщений:
    476
    Пол:
    Мужской
    «Завести друга легко, приручить невозможно»- Информация
    Название: Мой любимый динозавр
    Оригинальное название: My Pet Dinosaur
    Год выхода: 2017
    Жанр: боевик, приключения, семейный
    Режиссер: Мэтт Драммонд
    Сценарий: Мэтт Драммонд
    Продюсер: Мэтт Драммонд, Меган Уильямс, Кэрол Драммонд
    В ролях: Джордан Дюльо,Аннабель Вольф,Скотт Ирвин,Бет Чемпион,Роулэнд Холмс,Кристофер Габарди,Харрисон Саундерс,Том Руни,Сэм Винспер-Шиллингс,Джек Марс
    --Сюжет:
    В результате неудачного военного биологического эксперимента рождается удивительное создание. Это существо находит подросток и прячет у себя дома. Новый друг начинает стремительно расти и распространять хаос по всему городу. Это, конечно, сразу же вызывает недовольство людей в форме. Но они еще не знают, что на защиту животного выйдет команда местных подростков.- Страна: Австралия
    Продолжительность: 01:33:51

    Файл
    Кодек: MPEG4/ISO/AVC/H.264
    Формат: MKV
    Качество: BDRip 1080p | 60 fps
    Видео: 1920 x 800 (2.400) | 59.940 fps | 12.6 Мбит/сек
    Аудио 1: AC-3| 5.1 | 48 kHz | 384 Кбит/сек | 16 bit | Дубляж (iTunes) |
    Аудио 2: AC-3| 5.1 | 48 kHz | 640 Кбит/сек | 16 bit | Орегинал
    Субтитры: НЕТ

    MedifInfo

    Видео
    Идентификатор : 1
    Формат : AVC
    Формат/Информация : Advanced Video Codec
    Профиль формата : High@L4.1
    Параметр CABAC формата : Да
    Параметр ReFrames формата : 4 кадра
    Идентификатор кодека : V_MPEG4/ISO/AVC
    Продолжительность : 1 ч. 33 м.
    Битрейт : 12,6 Мбит/сек
    Ширина : 1920 пикселей
    Высота : 800 пикселей
    Соотношение сторон : 2,40:1
    Режим частоты кадров : Постоянный
    Частота кадров : 59,940 (60000/1001) кадров/сек
    Цветовое пространство : YUV
    Субдискретизация насыщенности : 4:2:0
    Битовая глубина : 8 бит
    Тип развёртки : Прогрессивная
    Бит/(Пиксели*Кадры) : 0.137
    Размер потока : 8,23 Гбайт (92%)
    Заголовок : Талямба: 60-fps.org
    Библиотека кодирования : x264 core 146 r2538 121396c
    Настройки программы : cabac=1 / ref=3 / deblock=1:-2:-2 / analyse=0x3:0x113 / me=hex / subme=7 / psy=1 / psy_rd=1.00:0.25 / mixed_ref=1 / me_range=16 / chroma_me=1 / trellis=1 / 8x8dct=1 / cqm=0 / deadzone=6,6 / fast_pskip=1 / chroma_qp_offset=-4 / threads=12 / lookahead_threads=2 / sliced_threads=0 / nr=0 / decimate=0 / interlaced=0 / bluray_compat=0 / constrained_intra=0 / bframes=3 / b_pyramid=2 / b_adapt=1 / b_bias=0 / direct=1 / weightb=1 / open_gop=0 / weightp=2 / keyint=600 / keyint_min=60 / scenecut=40 / intra_refresh=0 / rc_lookahead=40 / rc=2pass / mbtree=1 / bitrate=12600 / ratetol=1.0 / qcomp=0.80 / qpmin=0 / qpmax=69 / qpstep=4 / cplxblur=20.0 / qblur=0.5 / vbv_maxrate=50000 / vbv_bufsize=50000 / nal_hrd=none / filler=0 / ip_ratio=1.10 / aq=1:0.50
    Язык : English
    Default : Да
    Forced : Нет
    Аудио #1
    Идентификатор : 2
    Формат : AC-3
    Формат/Информация : Audio Coding 3
    Расширение режима : CM (complete main)
    Параметр Endianness формата : Big
    Идентификатор кодека : A_AC3
    Продолжительность : 1 ч. 33 м.
    Вид битрейта : Постоянный
    Битрейт : 384 Кбит/сек
    Каналы : 6 каналов
    Расположение каналов : Front: L C R, Side: L R, LFE
    Частота : 48,0 КГц
    Частота кадров : 31,250 кадров/сек (1536 spf)
    Битовая глубина : 16 бит
    Метод сжатия : С потерями
    Размер потока : 258 Мбайт (3%)
    Заголовок : Дубляж (iTunes)
    Язык : Russian
    Default : Да
    Forced : Нет
    Аудио #2
    Идентификатор : 3
    Формат : AC-3
    Формат/Информация : Audio Coding 3
    Расширение режима : CM (complete main)
    Параметр Endianness формата : Big
    Идентификатор кодека : A_AC3
    Продолжительность : 1 ч. 33 м.
    Вид битрейта : Постоянный
    Битрейт : 640 Кбит/сек
    Каналы : 6 каналов
    Расположение каналов : Front: L C R, Side: L R, LFE
    Частота : 48,0 КГц
    Частота кадров : 31,250 кадров/сек (1536 spf)
    Битовая глубина : 16 бит
    Метод сжатия : С потерями
    Размер потока : 429 Мбайт (5%)
    Заголовок : Оригинал
    Язык : English
    Default : Нет
    Forced : Нет
    Меню
    00:00:00.000 : en:Chapter 01
    00:09:20.935 : en:Chapter 02
    00:17:58.828 : en:Chapter 03
    00:25:10.426 : en:Chapter 04
    00:32:31.992 : en:Chapte 05
    00:40:29.177 : en:Chapter 06
    00:47:27.386 : en:Chapter 07
    00:54:54.082 : en:Chapter 08
    01:02:29.412 : en:Chapter 09
    01:11:36.375 : en:Chapter 10
    01:19:15.626 : en:Chapter 11
    01:26:00.322 : en:Chapter 12


Вы не можете начинать темы
Вы не можете отвечать на сообщения
Вы не можете редактировать свои сообщения
Вы не можете удалять свои сообщения
Вы не можете голосовать в опросах
Вы не можете прикреплять файлы к сообщениям
Вы не можете скачивать файлы