Аватар / Avatar (2009) BDRip 1080p | 120 fps | Extended Collector's Cut | Experimental Мстители: Война бесконечности / Avengers: Infinity War (2018) BDRip 1080p | 120 fps Хан Соло: Звёздные войны. Истории / Solo: A Star Wars Story (2018) BDRip 1080p | Локализованная версия | 120 fps Трансформеры: Месть падших / Transformers: Revenge of the Fallen (2009) BDRip 1080p | IMAX Edition | 120 fps Аватар / Avatar (2009) BDRip 720p | Extended Cut | 95 fps Мир Юрского периода 2 / Jurassic World: Fallen Kingdom (2018) BDRip 720p | 95 fps Чужой / Alien (1979) BDRip 1080p | Director's Cut | 120 fps Чужие / Aliens (1986) BDRip 1080p | Special Edition | 120 fps
Статистика раздачи
Размер:  11,5 GB   |    Зарегистрирован:  11 дней   |    Скачан:  4 раза

Полного источника не было: 17 часов

 
 
 
  1. Стаж:
    4 года 2 месяца
    Сообщений:
    2433
    Пол:
    Мужской
    «Величайшая реальная история о побеге» Информация
    Название: Мотылек
    Оригинальное название: Papillon
    Год выхода: 2017
    Жанр: Драма, криминал
    Режиссер: Михаэль Ноер
    Сценарий: Аарон Гузиковский, Далтон Трамбо
    Продюсер: Рэм Бергман, Роджер Корби
    В ролях: Чарли Ханнэм, Рами Малек, Роланд Мюллер, Йоэль Басман, Йорик ван Вагенинген, Майкл Сока, Кристофер Фэйрбэнк, Ив Хьюсон, Томми Флэнаган, Николас Асбари

    Сюжет:
    Взломщик сейфов по прозвищу Мотылёк получает пожизненный срок и отправляется на каторгу за убийство, которого он не совершал. Когда вокруг враги, а надежда угасает с каждым днём заключения, лишь сила духа может помочь Мотыльку обрести свободу.

    Страна: Чехия, Испания, США
    Продолжительность: 02:13:14

    Файл
    Кодек: H.264
    Формат: MKV
    Качество: BDRip 720p | 95 fps
    Видео: 1280 x 536 (2.388) | 95.904 fps | 12.0 Мбит/сек
    Аудио: AC3 | 5.1 | 48 kHz | 384 kbps | 16 bit | Дубляж - iTunes |

    MedifInfo

    Видео
    Идентификатор : 1
    Формат : AVC
    Формат/Информация : Advanced Video Codec
    Профиль формата : High@L4.1
    Настройки формата : CABAC / 4 Ref Frames
    Параметр CABAC формата : Да
    Параметр RefFrames формата : 4 кадра
    Идентификатор кодека : V_MPEG4/ISO/AVC
    Продолжительность : 2 ч. 13 м.
    Битрейт : 12,0 Мбит/сек
    Ширина : 1280 пикселей
    Высота : 536 пикселей
    Соотношение сторон : 2,40:1
    Режим частоты кадров : Постоянный
    Частота кадров : 95,904 кадров/сек
    Цветовое пространство : YUV
    Субдискретизация насыщенности : 4:2:0
    Битовая глубина : 8 бит
    Тип развёртки : Прогрессивная
    Бит/(Пиксели*Кадры) : 0.182
    Размер потока : 11,1 Гбайт (97%)
    Заголовок : Мотылек / Papillon (2017) BDRip 720p | 95 fps
    Библиотека кодирования : x264 core 152 r2851 ba24899
    Настройки программы : cabac=1 / ref=3 / deblock=1:-3:-3 / analyse=0x3:0x113 / me=hex / subme=8 / psy=1 / psy_rd=1.00:0.25 / mixed_ref=1 / me_range=16 / chroma_me=1 / trellis=1 / 8x8dct=1 / cqm=0 / deadzone=6,6 / fast_pskip=1 / chroma_qp_offset=-4 / threads=12 / lookahead_threads=2 / sliced_threads=0 / nr=0 / decimate=0 / interlaced=0 / bluray_compat=0 / constrained_intra=0 / bframes=3 / b_pyramid=2 / b_adapt=1 / b_bias=0 / direct=1 / weightb=1 / open_gop=0 / weightp=2 / keyint=959 / keyint_min=95 / scenecut=40 / intra_refresh=0 / rc_lookahead=40 / rc=2pass / mbtree=1 / bitrate=11999 / ratetol=1.0 / qcomp=0.80 / qpmin=0 / qpmax=69 / qpstep=4 / cplxblur=20.0 / qblur=0.5 / vbv_maxrate=62500 / vbv_bufsize=78125 / nal_hrd=none / filler=0 / ip_ratio=1.10 / aq=1:0.50
    Язык : Russian
    Default : Да
    Forced : Нет
    Аудио
    Идентификатор : 2
    Формат : AC-3
    Формат/Информация : Audio Coding 3
    Идентификатор кодека : A_AC3
    Продолжительность : 2 ч. 12 м.
    Вид битрейта : Постоянный
    Битрейт : 384 Кбит/сек
    Каналы : 6 каналов
    Расположение каналов : Front: L C R, Side: L R, LFE
    Частота : 48,0 КГц
    Частота кадров : 31,250 кадров/сек (1536 SPF)
    Битовая глубина : 16 бит
    Метод сжатия : С потерями
    Размер потока : 365 Мбайт (3%)
    Заголовок : Дубляж - iTunes
    Язык : Russian
    ServiceKind/String : Complete Main
    Default : Да
    Forced : Нет
    Меню
    00:00:00.000 : :Chapter 01
    00:08:16.621 : :Chapter 02
    00:16:47.589 : :Chapter 03
    00:21:25.909 : :Chapter 04
    00:26:31.965 : :Chapter 05
    00:30:39.796 : :Chapter 06
    00:34:10.798 : :Chapter 07
    00:44:51.146 : :Chapter 08
    00:52:54.588 : :Chapter 09
    00:59:03.665 : :Chapter 10
    01:04:12.890 : :Chapter 11
    01:12:18.334 : :Chapter 12
    01:20:35.372 : :Chapter 13
    01:24:08.418 : :Chapter 14
    01:35:19.547 : :Chapter 15
    01:40:53.047 : :Chapter 16
    01:47:10.882 : :Chapter 17
    01:57:03.016 : :Chapter 18
    02:02:58.913 : :Chapter 19
    02:05:57.550 : :Chapter 20
    --Внимание.
    Фильм находится в запароленном архиве !!!
    За приобретением ключа к архиву , писать в личку автору .

    https://60-fps.org/120fps.php
    Мотылек (2017) BDRip 720p_95 fps.rar.torrent
    Зарегистрирован 2018-11-29 15:42
    99BC4BC4A2F6729665B70D932F349955E96F1D67
    проверено
    4 раз
    0
    0
    Похожие Темы


Вы не можете начинать темы
Вы не можете отвечать на сообщения
Вы не можете редактировать свои сообщения
Вы не можете удалять свои сообщения
Вы не можете голосовать в опросах
Вы не можете прикреплять файлы к сообщениям
Вы можете скачивать файлы