Агент Ева / Ava (2020) BDRip 1080p | 60 fps Танго и Кэш / Tango & Cash (1989) BDRemux 1080p | 60 fps Властелин колец: Трилогия / The Lord of the Rings: Trilogy (2001-2003) BDRip-AVC | Extended Cut | 60 fps Ультрафиолет / Ultraviolet (2006) BDRip 1080p | 60 fps Вивариум / Vivarium (2019) BDRip 720p | 60 fps Девушка-невидимка / Shadow Girl (2019) BDRip 720p | 60 fps Не входи / The Owners(2020) BDRip 720p | 60 fps Достать ножи / Knives Out (2019) BDRip 1080p | 60 fps
  1. Longevity:
    6 years 7 months
    Posts:
    2414
    Gender:
    Male
    «Франция забыла о вас... Забудьте и вы о Франции»- Информация
    Название: Мотылек
    Оригинальное название: Papillon
    Год выхода: 1973
    Жанр: драма, криминал
    Режиссер: Франклин Дж. Шаффнер
    Сценарий: Далтон Трамбо, Лоренцо Семпл мл., Уильям Голдмен
    Продюсер: Робер Дорфман, Франклин Дж. Шаффнер, Эмануэл Л. Вульф
    В ролях: Стив МакКуин, Дастин Хоффман, Виктор Джори, Дон Гордон, Энтони Зерби, Роберт Димен, Вудроу Парфри, Билл Муми, Джордж Кулурис, Рэтна Ассан, Уильям Смитерс, Вэл Эйвери, Грегори Сьерра
    --Сюжет:
    За убийство, которое он не совершал, взломщик сейфов Анри Шарьер приговорен к пожизненному заключению и отправлен на каторгу. Прозванный «Мотыльком» из-за того, что на его груди вытатуирован этот символ свободы, Анри совершает несколько попыток побега. В наказание власти надолго сажают его в карцер, а затем отправляют во Французскую Гвиану на остров Дьявола, со всех сторон окруженный океаном.
    Из этой самой страшной каторжной тюрьмы не удавалось бежать ни одному заключенному. Но ничто не может заставить Анри пасть духом и сломить его решимость вырваться на волю…
    - Страна: Франция, США
    Продолжительность: 2:30:47

    Файл
    Кодек: MPEG4/ISO/AVC H.264
    Формат: MKV
    Качество: BDRip 720p | 60 fps
    Видео: 1280 x 534 (2.397) | 59.940 fps | 8.0 Мбит/сек
    Аудио 1: AC3 | 2.0 | 48 kHz | 192 kbps | 16 bit | Многоголосый - DVD Магия |
    Аудио 2: AC3 | 2.0 | 48 kHz | 192 kbps | 16 bit | Многоголосый - ОРТ |
    Аудио 3: AC3 | 2.0 | 48 kHz | 192 kbps | 16 bit | Двухголосый закадровый |
    Аудио 4: AC3 | 5.1 | 48 kHz | 640 kbps | 16 bit | Двухголосый закадровый - Гланц и Королева |
    Аудио 5: AC3 | 5.1 | 48 kHz | 640 kbps | 16 bit | Авторский - А. Гаврилов |
    Аудио 6: AC3 | 5.1 | 48 kHz | 640 kbps | 16 bit | Авторский - М. Иванов |
    Аудио 7: AC3 | 5.1 | 48 kHz | 640 kbps | 16 bit | ENG |
    Субтитры: Русские, English

    MedifInfo

    Видео
    Идентификатор : 1
    Формат : AVC
    Формат/Информация : Advanced Video Codec
    Профиль формата : [email protected]
    Параметр CABAC формата : Да
    Параметр ReFrames формата : 3 кадра
    Идентификатор кодека : V_MPEG4/ISO/AVC
    Продолжительность : 2 ч. 30 м.
    Вид битрейта : Переменный
    Битрейт : 7760 Кбит/сек
    Максимальный битрейт : 8000 Кбит/сек
    Ширина : 1280 пикселей
    Высота : 534 пикселя
    Соотношение сторон : 2,40:1
    Режим частоты кадров : Постоянный
    Частота кадров : 59,880 кадров/сек
    Частота кадров в оригинале : 59,940 кадров/сек
    Стандарт вещания : PAL
    Цветовое пространство : YUV
    Субдискретизация насыщенности : 4:2:0
    Битовая глубина : 8 бит
    Тип развёртки : Прогрессивная
    Бит/(Пиксели*Кадры) : 0.190
    Размер потока : 8,17 Гбайт (70%)
    Заголовок : www.60-fps.org
    Язык : English
    Default : Да
    Forced : Нет
    Основные цвета : BT.601 NTSC
    Характеристики трансфера : BT.601
    Коэффициенты матрицы : BT.601
    colour_range : Limited
    Аудио #1
    Идентификатор : 2
    Формат : AC-3
    Формат/Информация : Audio Coding 3
    Расширение режима : CM (complete main)
    Параметр Endianness формата : Big
    Идентификатор кодека : A_AC3
    Продолжительность : 2 ч. 30 м.
    Вид битрейта : Постоянный
    Битрейт : 192 Кбит/сек
    Каналы : 2 канала
    Расположение каналов : Front: L R
    Частота : 48,0 КГц
    Битовая глубина : 16 бит
    Метод сжатия : С потерями
    Размер потока : 207 Мбайт (2%)
    Заголовок : Многоголосый - DVD Магия
    Язык : Russian
    Default : Да
    Forced : Нет
    Аудио #2
    Идентификатор : 3
    Формат : AC-3
    Формат/Информация : Audio Coding 3
    Расширение режима : CM (complete main)
    Параметр Endianness формата : Big
    Идентификатор кодека : A_AC3
    Продолжительность : 2 ч. 30 м.
    Вид битрейта : Постоянный
    Битрейт : 192 Кбит/сек
    Каналы : 2 канала
    Расположение каналов : Front: L R
    Частота : 48,0 КГц
    Битовая глубина : 16 бит
    Метод сжатия : С потерями
    Размер потока : 207 Мбайт (2%)
    Заголовок : Многоголосый - ОРТ
    Язык : Russian
    Default : Нет
    Forced : Нет
    Аудио #3
    Идентификатор : 4
    Формат : AC-3
    Формат/Информация : Audio Coding 3
    Расширение режима : CM (complete main)
    Параметр Endianness формата : Big
    Идентификатор кодека : A_AC3
    Продолжительность : 2 ч. 30 м.
    Вид битрейта : Постоянный
    Битрейт : 192 Кбит/сек
    Каналы : 2 канала
    Расположение каналов : Front: L R
    Частота : 48,0 КГц
    Битовая глубина : 16 бит
    Метод сжатия : С потерями
    Размер потока : 207 Мбайт (2%)
    Заголовок : Двухголосый закадровый
    Язык : Russian
    Default : Нет
    Forced : Нет
    Аудио #4
    Идентификатор : 5
    Формат : AC-3
    Формат/Информация : Audio Coding 3
    Расширение режима : CM (complete main)
    Параметр Endianness формата : Big
    Идентификатор кодека : A_AC3
    Продолжительность : 2 ч. 30 м.
    Вид битрейта : Постоянный
    Битрейт : 640 Кбит/сек
    Каналы : 6 каналов
    Расположение каналов : Front: L C R, Side: L R, LFE
    Частота : 48,0 КГц
    Битовая глубина : 16 бит
    Метод сжатия : С потерями
    Размер потока : 690 Мбайт (6%)
    Заголовок : Двухголосый закадровый - Гланц и Королева
    Язык : Russian
    Default : Нет
    Forced : Нет
    Аудио #5
    Идентификатор : 6
    Формат : AC-3
    Формат/Информация : Audio Coding 3
    Расширение режима : CM (complete main)
    Параметр Endianness формата : Big
    Идентификатор кодека : A_AC3
    Продолжительность : 2 ч. 30 м.
    Вид битрейта : Постоянный
    Битрейт : 640 Кбит/сек
    Каналы : 6 каналов
    Расположение каналов : Front: L C R, Side: L R, LFE
    Частота : 48,0 КГц
    Битовая глубина : 16 бит
    Метод сжатия : С потерями
    Размер потока : 690 Мбайт (6%)
    Заголовок : Авторский - А. Гаврилов
    Язык : Russian
    Default : Нет
    Forced : Нет
    Аудио #6
    Идентификатор : 7
    Формат : AC-3
    Формат/Информация : Audio Coding 3
    Расширение режима : CM (complete main)
    Параметр Endianness формата : Big
    Идентификатор кодека : A_AC3
    Продолжительность : 2 ч. 30 м.
    Вид битрейта : Постоянный
    Битрейт : 640 Кбит/сек
    Каналы : 6 каналов
    Расположение каналов : Front: L C R, Side: L R, LFE
    Частота : 48,0 КГц
    Битовая глубина : 16 бит
    Метод сжатия : С потерями
    Размер потока : 690 Мбайт (6%)
    Заголовок : Авторский - М. Иванов
    Язык : Russian
    Default : Нет
    Forced : Нет
    Аудио #7
    Идентификатор : 8
    Формат : AC-3
    Формат/Информация : Audio Coding 3
    Расширение режима : CM (complete main)
    Параметр Endianness формата : Big
    Идентификатор кодека : A_AC3
    Продолжительность : 2 ч. 30 м.
    Вид битрейта : Постоянный
    Битрейт : 640 Кбит/сек
    Каналы : 6 каналов
    Расположение каналов : Front: L C R, Side: L R, LFE
    Частота : 48,0 КГц
    Битовая глубина : 16 бит
    Метод сжатия : С потерями
    Размер потока : 690 Мбайт (6%)
    Заголовок : Eng
    Default : Нет
    Forced : Нет
    Текст #1
    Идентификатор : 9
    Формат : UTF-8
    Идентификатор кодека : S_TEXT/UTF8
    Идентификатор кодека/Информация : UTF-8 Plain Text
    Язык : Russian
    Default : Нет
    Forced : Нет
    Текст #2
    Идентификатор : 10
    Формат : UTF-8
    Идентификатор кодека : S_TEXT/UTF8
    Идентификатор кодека/Информация : UTF-8 Plain Text
    Язык : English
    Default : Нет
    Forced : Нет
    Меню
    00:00:00.000 : en:00:00:00.000
    00:03:58.321 : en:00:03:58.321
    00:08:21.084 : en:00:08:21.084
    00:10:31.381 : en:00:10:31.381
    00:15:24.006 : en:00:15:24.006
    00:16:58.643 : en:00:16:58.643
    00:22:14.542 : en:00:22:14.542
    00:25:40.414 : en:00:25:40.414
    00:30:16.815 : en:00:30:16.815
    00:35:01.933 : en:00:35:01.933
    00:40:35.850 : en:00:40:35.850
    00:43:53.005 : en:00:43:53.005
    00:45:50.456 : en:00:45:50.456
    00:51:21.954 : en:00:51:21.954
    00:56:38.562 : en:00:56:38.562
    00:58:26.378 : en:00:58:26.378
    01:07:21.955 : en:01:07:21.955
    01:09:26.662 : en:01:09:26.662
    01:12:26.759 : en:01:12:26.759
    01:17:45.911 : en:01:17:45.911
    01:21:02.691 : en:01:21:02.691
    01:24:08.335 : en:01:24:08.335
    01:26:05.535 : en:01:26:05.535
    01:32:59.991 : en:01:32:59.991
    01:35:57.418 : en:01:35:57.418
    01:37:55.953 : en:01:37:55.953
    01:42:36.359 : en:01:42:36.359
    01:44:18.627 : en:01:44:18.627
    01:47:37.201 : en:01:47:37.201
    01:51:02.239 : en:01:51:02.239
    01:54:34.743 : en:01:54:34.743
    02:02:55.910 : en:02:02:55.910
    02:07:06.828 : en:02:07:06.828
    02:10:31.991 : en:02:10:31.991
    02:14:08.624 : en:02:14:08.624
    02:16:37.147 : en:02:16:37.147
    02:20:06.523 : en:02:20:06.523
    02:24:07.472 : en:02:24:07.472
    02:27:12.991 : en:02:27:12.991

    Release was prepared by 60-fps.org

  2. Longevity:
    5 years 4 months
    Posts:
    48
    Gender:
    Male
    фильм классный. на двд имеется у меня такой! гляну как эта запись.
    14-Dec-2016 10:02 (after 10 days)
  3. Longevity:
    5 years 4 months
    Posts:
    48
    Gender:
    Male
    уважаемые админы а есть ли возможность сделать в 60 fps фильм с МакКуином (Невада Смит)? Улыбаюсь
    14-Dec-2016 11:57 (after 1 hour 54 minutes)
  4. Longevity:
    6 years 7 months
    Posts:
    2414
    Gender:
    Male
    7057уважаемые админы а есть ли возможность сделать в 60 fps фильм с МакКуином (Невада Смит)? Улыбаюсь
    Заказы на платной основе .
    14-Dec-2016 18:09 (after 6 hours)
  5. Longevity:
    5 years 4 months
    Posts:
    48
    Gender:
    Male
    что стоит? Мне скучно
    19-Dec-2016 15:37 (after 4 days)
  6. Longevity:
    6 years 7 months
    Posts:
    2414
    Gender:
    Male
    7085что стоит? Мне скучно
    путевка на кубу на месяц Смеюсь
    19-Dec-2016 16:29 (after 51 minute)
  7. Longevity:
    5 years 4 months
    Posts:
    48
    Gender:
    Male
    ух ты !злые вы! научи меня как кодировать! сам займусь! Подмигиваю
    22-Dec-2016 11:41 (after 2 days 19 hours)
  8. Longevity:
    3 years 8 months
    Posts:
    5
    Gender:
    Unknown
    Благодарим за обмен.
    26-Aug-2017 09:04 (after 8 months 3 days)


You cannot post new topics in this forum
You cannot reply to topics in this forum
You cannot edit your posts in this forum
You cannot delete your posts in this forum
You cannot vote in polls in this forum
You cannot attach files in this forum
You cannot download files in this forum