Топ Топиков за 24 часа
 
Притяжение (2017) BDRip 1080p | 60 fps Джентльмены удачи (1971) BDRip-AVC | 60 fps Собачье сердце (1988) HD 720p | 60 fps Операция «Ы» и другие приключения Шурика (1965) BDRip-AVC | 60 fps Брат 2 (2000 г.) DVDRip | 60 fps 28 панфиловцев (2016) BDRip 1080p | 60 fps Место встречи изменить нельзя (1979) DVDRip | 60 fps Кавказская пленница, или Новые приключения Шурика (1966) BDRip-AVC | 60 fps Кин-дза-дза! (1986) BDRip 1080p | 60 fps Жмурки (2005) BDRip 720p | 60 fps Гагарин. Первый в космосе (2013) BDRip 1080p | 60 fps Иван Васильевич меняет профессию (1973) BDRip-AVC | 60 fps
  1. bot

    Стаж:
    3 года 1 месяц
    Сообщений:
    413
    Пол:
    Не указан
    -Название: Москва слезам не верит
    Год выпуска: 1979
    Страна: СССР
    Жанр: драма, мелодрама, комедия
    Продолжительность: 02:28:17
    Перевод: Оригинальный-Режиссер: Владимир Меньшов-В ролях: Вера Алентова (Екатерина Александровна Тихомирова (Катя)), Ирина Муравьёва (Людмила Свиридова (Люда)), Алексей Баталов (Георгий Иванович (Гоша,Гога), возлюбленный Катерины), Раиса Рязанова (Антонина Буянова (Тося,Тоня)), Александр Фатюшин (Сергей Гурин, известный хоккеист, муж Людмилы), Борис Сморчков (Николай, рабочий на стройке, муж Антонины), Юрий Васильев (Рудольф (Родион) Петрович Рачков, телеоператор из Останкино, отец ребенка Катерины), Наталья Вавилова (Александра Александровна Тихомирова (Сашка), дочь Катерины и Рачкова), Виктор Уральский (отец Николая), Валентина Ушакова (мама Николая), Евгения Ханаева (мама Рачкова), Зоя Фёдорова (тётя Паша, вахтерша)-Описание:
    Москва пятидесятых годов. Три молодые провинциалки приезжают в Москву в поисках того, что ищут люди во всех столицах мира - любви, счастья и достатка. Их судьбы складываются именно так, как предполагает характер каждой из девушек.
    Антонина выходит замуж, растит детей, любит мужа. Людмиле Москва представляется лотереей, в которой она должна выиграть свое особенное счастье. Катерина же - отчаянно влюбляется, но избранник ее оставляет. Однако она не опускает руки, в одиночку растит дочь и к тому же успевает сделать блестящую карьеру. В сорок лет судьба дарит ей встречу с прекрасным человеком и настоящую любовь...-Рейтинг

    imdb.com: 8.30 (5283)-Качество: BDRip 1080p / 60 FPS
    Формат: MKV
    Видео кодек: AVC
    Аудио кодек:AC3, DTS-HD
    Видео: AVC, 1424x1080, 15431 kbps, 59,940 fps
    Аудио №1: русский / AC3 / 5.1 / 48 kHz / 640 kbps / 16 bit
    Аудио №2: русский / DTS-HD / 5.1 / 48 kHz / 1560 kbps / 24 bit
    Навигация по главам: есть- -

    MI

    General
    Unique ID : 237990847165733729317072348908021495384 (0xB30B5EB212559DD291B6060D53F63658)
    Complete name : A:1080p 60fpsМосква слезам не верит 1080p 60fps.mkv
    Format : Matroska
    Format version : Version 4 / Version 2
    File size : 18.6 GiB
    Duration : 2h 28mn
    Overall bit rate mode : Variable
    Overall bit rate : 18.0 Mbps
    Encoded date : UTC 2014-10-23 16:45:50
    Writing application : mkvmerge v6.9.1 ('Blue Panther') 64bit built on Apr 18 2014 18:23:38
    Writing library : libebml v1.3.0 + libmatroska v1.4.1
    Video
    ID : 1
    Format : AVC
    Format/Info : Advanced Video Codec
    Format profile : High@L4.1
    Format settings, CABAC : Yes
    Format settings, ReFrames : 4 frames
    Codec ID : V_MPEG4/ISO/AVC
    Duration : 2h 28mn
    Bit rate : 15.4 Mbps
    Nominal bit rate : 14.0 Mbps
    Width : 1 424 pixels
    Height : 1 080 pixels
    Display aspect ratio : 4:3
    Frame rate : 59.940 fps
    Color space : YUV
    Chroma subsampling : 4:2:0
    Bit depth : 8 bits
    Scan type : Progressive
    Bits/(Pixel*Frame) : 0.167
    Stream size : 16.0 GiB (86%)
    Writing library : x264 core 130 r2273 b3065e6
    Encoding settings : cabac=1 / ref=4 / deblock=1:-1:-1 / analyse=0x3:0 / me=umh / subme=9 / psy=1 / psy_rd=1.00:0.00 / mixed_ref=1 / me_range=44 / chroma_me=0 / trellis=2 / 8x8dct=1 / cqm=0 / deadzone=21,11 / fast_pskip=0 / chroma_qp_offset=-2 / threads=12 / lookahead_threads=1 / sliced_threads=0 / nr=0 / decimate=0 / interlaced=0 / bluray_compat=0 / constrained_intra=0 / bframes=5 / b_pyramid=2 / b_adapt=2 / b_bias=0 / direct=3 / weightb=1 / open_gop=0 / weightp=2 / keyint=250 / keyint_min=59 / scenecut=40 / intra_refresh=0 / rc_lookahead=60 / rc=2pass / mbtree=1 / bitrate=14000 / ratetol=1.0 / qcomp=0.80 / qpmin=0 / qpmax=69 / qpstep=4 / cplxblur=20.0 / qblur=0.5 / ip_ratio=1.40 / aq=1:0.80
    Language : English
    Default : Yes
    Forced : No
    Audio #1
    ID : 2
    Format : AC-3
    Format/Info : Audio Coding 3
    Mode extension : CM (complete main)
    Codec ID : A_AC3
    Duration : 2h 28mn
    Bit rate mode : Constant
    Bit rate : 640 Kbps
    Channel(s) : 6 channels
    Channel positions : Front: L C R, Side: L R, LFE
    Sampling rate : 48.0 KHz
    Bit depth : 16 bits
    Compression mode : Lossy
    Stream size : 679 MiB (4%)
    Title : Оригинал
    Language : Russian
    Default : Yes
    Forced : No
    Audio #2
    ID : 3
    Format : DTS
    Format/Info : Digital Theater Systems
    Format profile : MA / Core
    Codec ID : A_DTS
    Duration : 2h 28mn
    Bit rate mode : Variable
    Bit rate : 1 561 Kbps / 1 510 Kbps
    Channel(s) : 6 channels
    Channel positions : Front: L C R, Side: L R, LFE
    Sampling rate : 48.0 KHz
    Bit depth : 24 bits
    Compression mode : Lossless / Lossy
    Title : Оригинал
    Language : Russian
    Default : No
    Forced : No
    Menu
    00:00:00.000 : en:Chapter 1
    00:04:00.406 : en:Chapter 2
    00:08:27.256 : en:Chapter 3
    00:09:44.917 : en:Chapter 4
    00:12:57.067 : en:Chapter 5
    00:15:17.917 : en:Chapter 6
    00:22:54.373 : en:Chapter 7
    00:26:51.943 : en:Chapter 8
    00:29:58.338 : en:Chapter 9
    00:35:52.400 : en:Chapter 10
    00:42:41.475 : en:Chapter 11
    00:46:03.343 : en:Chapter 12
    00:48:36.079 : en:Chapter 13
    00:55:13.351 : en:Chapter 14
    01:01:13.002 : en:Chapter 15
    01:04:29.532 : en:Chapter 16
    01:06:50.631 : en:Chapter 17
    01:13:54.346 : en:Chapter 18
    01:14:38.348 : en:Chapter 19
    01:17:12.586 : en:Chapter 20
    01:21:11.074 : en:Chapter 21
    01:28:33.975 : en:Chapter 22
    01:35:22.925 : en:Chapter 23
    01:40:35.738 : en:Chapter 24
    01:46:30.884 : en:Chapter 25
    01:54:40.999 : en:Chapter 26
    01:57:20.616 : en:Chapter 27
    02:00:59.752 : en:Chapter 28
    02:04:17.408 : en:Chapter 29
    02:10:55.806 : en:Chapter 30
    02:18:33.596 : en:Chapter 31
    02:22:05.892 : en:Chapter 32
    02:28:16.804 : en:Chapter 33

    Скриншоты

  2. Стаж:
    3 года 1 месяц
    Сообщений:
    2084
    Пол:
    Мужской
     
    [adm]Торрент файл заменен ...
    Удалите старый торрент файл и скачайте новый ...
    [/adm]
  3. Стаж:
    3 года
    Сообщений:
    53
    Пол:
    Мужской
     
    Спасибо!
    16-Янв-2015 12:08 (спустя 16 часов)


Вы не можете начинать темы
Вы не можете отвечать на сообщения
Вы не можете редактировать свои сообщения
Вы не можете удалять свои сообщения
Вы не можете голосовать в опросах
Вы не можете прикреплять файлы к сообщениям
Вы не можете скачивать файлы