[Цитировать]
Kryl

«The One Thing That Could Bring Them Together Is Revenge»- Информация
Название: Мошенники
Оригинальное название: Serving Sara
Год выхода: 2002
Жанр: Мелодрама, комедия, приключения
Режиссер: Реджинальд Хадлин
Сценарий: Джей Шерик, Дэвид Ронн
Продюсер: Дэн Халстед, Дэн Колсруд, Роланд Пеллегрино
В ролях: Мэттью Перри, Элизабет Хёрли, Винсент Пасторе, Брюс Кэмпбелл, Эми Адамс, Терри Крюс, Джерри Стиллер, Маршалл Белл, Дерек Саузерс, Алайна Хаффман
--Сюжет:
Развод по-американски — это «развод» на деньги. Стоит только вытереть слезы и с помощью ушлого парня из адвокатской конторы «развести» бывшего муженька и его новую пассию на миллион долларов. Все, что для этого нужно, — небольшая афера.
Гордон и Сара Мур не совсем обычная супружеская пара. Сара — типичная англичанка, Гордон — типичный техасец. Благодаря совместным усилиям их скотоводческое ранчо приносит огромные доходы. Прощаясь с мужем в аэропорту и садясь в самолет, направляющийся в Нью-Йорк, Сара и подумать не могла, какой сюрприз приготовил ей благоверный. В его жизни появилась другая женщина, и он хочет развестись.
- Страна: Германия, США
Продолжительность: 01:39:59

Файл
Кодек: MPEG4/ISO/AVC H.264
Формат: MKV
Качество: DVDRip | 60 fps
Видео: 704 x 400 (1.760) | 57,582 fps | 3.0 Мбит/сек
Аудио 1: AC3 | 5.1 | 48 kHz | 448 kbps | 16 bit | Дубляж - R5 Невафильм |
Аудио 2: AC3 | 5.1 | 48 kHz | 448 kbps | 16 bit | Многоголосый закадровый |
Аудио 3: AC3 | 5.1 | 48 kHz | 448 kbps | 16 bit | Авторский - В. Королёв |

MedifInfo

Видео
Идентификатор : 1
Формат : AVC
Формат/Информация : Advanced Video Codec
Профиль формата : High@L4.1
Параметр CABAC формата : Да
Параметр ReFrames формата : 5 кадров
Идентификатор кодека : V_MPEG4/ISO/AVC
Продолжительность : 1 ч. 39 м.
Битрейт : 2999 Кбит/сек
Ширина : 704 пикселя
Высота : 400 пикселей
Соотношение сторон : 16:9
Режим частоты кадров : Постоянный
Частота кадров : 57,582 кадров/сек
Частота кадров в оригинале : 57,542 кадров/сек
Цветовое пространство : YUV
Субдискретизация насыщенности : 4:2:0
Битовая глубина : 8 бит
Тип развёртки : Прогрессивная
Бит/(Пиксели*Кадры) : 0.185
Размер потока : 2,04 Гбайт (67%)
Заголовок : www.60-fps.org
Библиотека кодирования : x264 core 148 r2638 7599210
Настройки программы : cabac=1 / ref=5 / deblock=1:-1:-1 / analyse=0x3:0x113 / me=umh / subme=8 / psy=1 / psy_rd=1.00:0.25 / mixed_ref=1 / me_range=32 / chroma_me=1 / trellis=1 / 8x8dct=1 / cqm=0 / deadzone=6,6 / fast_pskip=1 / chroma_qp_offset=-4 / threads=12 / lookahead_threads=2 / sliced_threads=0 / nr=0 / decimate=0 / interlaced=0 / bluray_compat=0 / constrained_intra=0 / bframes=3 / b_pyramid=2 / b_adapt=2 / b_bias=0 / direct=3 / weightb=1 / open_gop=0 / weightp=2 / keyint=575 / keyint_min=57 / scenecut=40 / intra_refresh=0 / rc_lookahead=50 / rc=2pass / mbtree=1 / bitrate=2999 / ratetol=1.0 / qcomp=0.80 / qpmin=0 / qpmax=69 / qpstep=4 / cplxblur=20.0 / qblur=0.5 / vbv_maxrate=62500 / vbv_bufsize=78125 / nal_hrd=none / filler=0 / ip_ratio=1.10 / aq=1:0.50
Default : Да
Forced : Нет
Аудио #1
Идентификатор : 2
Формат : AC-3
Формат/Информация : Audio Coding 3
Расширение режима : CM (complete main)
Параметр Endianness формата : Big
Идентификатор кодека : A_AC3
Продолжительность : 1 ч. 39 м.
Вид битрейта : Постоянный
Битрейт : 448 Кбит/сек
Каналы : 6 каналов
Расположение каналов : Front: L C R, Side: L R, LFE
Частота : 48,0 КГц
Битовая глубина : 16 бит
Метод сжатия : С потерями
Размер потока : 320 Мбайт (10%)
Default : Да
Forced : Нет
Аудио #2
Идентификатор : 3
Формат : AC-3
Формат/Информация : Audio Coding 3
Расширение режима : CM (complete main)
Параметр Endianness формата : Big
Идентификатор кодека : A_AC3
Продолжительность : 1 ч. 39 м.
Вид битрейта : Постоянный
Битрейт : 448 Кбит/сек
Каналы : 6 каналов
Расположение каналов : Front: L C R, Side: L R, LFE
Частота : 48,0 КГц
Битовая глубина : 16 бит
Метод сжатия : С потерями
Размер потока : 320 Мбайт (10%)
Default : Нет
Forced : Нет
Аудио #3
Идентификатор : 4
Формат : AC-3
Формат/Информация : Audio Coding 3
Расширение режима : CM (complete main)
Параметр Endianness формата : Big
Идентификатор кодека : A_AC3
Продолжительность : 1 ч. 39 м.
Вид битрейта : Постоянный
Битрейт : 448 Кбит/сек
Каналы : 6 каналов
Расположение каналов : Front: L C R, Side: L R, LFE
Частота : 48,0 КГц
Битовая глубина : 16 бит
Метод сжатия : С потерями
Размер потока : 320 Мбайт (10%)
Default : Нет
Forced : Нет
Киношка сделана по заказу пользователя
вячеслав

Релиз подготовлен 60 - fps

 
Показать сообщения:    

Текущее время: 25-Сен 12:43

Часовой пояс: UTC + 3


Вы не можете начинать темы
Вы не можете отвечать на сообщения
Вы не можете редактировать свои сообщения
Вы не можете удалять свои сообщения
Вы не можете голосовать в опросах
Вы не можете прикреплять файлы к сообщениям
Вы не можете скачивать файлы