[Цитировать]
Kryl

Морозко (1964) DVDRip | 60 fps- Информация
Название: Морозко
Год выхода: 2016
Жанр: драма, триллер
Режиссер: Александр Роу
Cценарий: Николай Эрдман, Михаил Вольпин
Директор фильма: В. Чайка
В ролях: Александр Хвыля,Наталья Седых, Эдуард Изотов, Инна Чурикова, Павел Павленко, Вера Алтайская, Георгий Милляр, Михаил Яншин,Галина Борисова,Анатолий Кубацкий,ВалентинБрылеев,ТатьянаПельтцер, ТатьянаБарышева, Варвара Попова,Зинаида Воркул,Анастасия Зуева, Маргарита Корабельникова.
--Сюжет:
Жила-была хорошая добрая девушка Настенька. Злая мачеха заставляла ее работать, не давая продыху. Однажды она решила избавиться от падчерицы и отправила ту замерзать в зимний лес. В этих же краях жил паренек Иван. Он полюбил Настеньку, да вот только был он большим хвастуном, потому лесной колдун и превратил его в медведя.
И Настеньке, и Ивану пришлось пройти через много испытаний, прежде чем соединить свои судьбы. И помог им в этом добрый волшебник — дедушка Морозко…
- Страна: СССР
Продолжительность: 01:18:50

Файл
Кодек: MPEG4/ISO/AVC H.264
Формат: MKV
Качество: DVDRip | 60 fps
Видео: 716 x 576 (1.243) | 60.000 fps | 4.0 Мбит/сек
Аудио: AC3 | 5.1 | 48 kHz | 448 kbps | 16 bit

MedifInfo

Видео
Идентификатор : 1
Формат : AVC
Формат/Информация : Advanced Video Codec
Профиль формата : High@L4.1
Параметр CABAC формата : Да
Параметр ReFrames формата : 5 кадров
Идентификатор кодека : V_MPEG4/ISO/AVC
Продолжительность : 1 ч. 18 м.
Битрейт : 3999 Кбит/сек
Ширина : 716 пикселей
Высота : 576 пикселей
Соотношение сторон : 5:4
Режим частоты кадров : Постоянный
Частота кадров : 60,000 кадров/сек
Цветовое пространство : YUV
Субдискретизация насыщенности : 4:2:0
Битовая глубина : 8 бит
Тип развёртки : Прогрессивная
Бит/(Пиксели*Кадры) : 0.162
Размер потока : 2,16 Гбайт (88%)
Заголовок : www.60-fps.org
Библиотека кодирования : x264 core 148 r2638 7599210
Настройки программы : cabac=1 / ref=5 / deblock=1:-3:-3 / analyse=0x3:0x113 / me=umh / subme=8 / psy=1 / psy_rd=1.00:0.25 / mixed_ref=1 / me_range=32 / chroma_me=1 / trellis=1 / 8x8dct=1 / cqm=0 / deadzone=6,6 / fast_pskip=1 / chroma_qp_offset=-4 / threads=12 / lookahead_threads=2 / sliced_threads=0 / nr=0 / decimate=0 / interlaced=0 / bluray_compat=0 / constrained_intra=0 / bframes=3 / b_pyramid=2 / b_adapt=2 / b_bias=0 / direct=3 / weightb=1 / open_gop=0 / weightp=2 / keyint=600 / keyint_min=60 / scenecut=40 / intra_refresh=0 / rc_lookahead=50 / rc=2pass / mbtree=1 / bitrate=3999 / ratetol=1.0 / qcomp=0.80 / qpmin=0 / qpmax=69 / qpstep=4 / cplxblur=20.0 / qblur=0.5 / vbv_maxrate=62500 / vbv_bufsize=78125 / nal_hrd=none / filler=0 / ip_ratio=1.10 / aq=1:0.50
Язык : Russian
Default : Да
Forced : Нет
Аудио
Идентификатор : 2
Формат : AC-3
Формат/Информация : Audio Coding 3
Расширение режима : CM (complete main)
Параметр Endianness формата : Big
Идентификатор кодека : A_AC3
Продолжительность : 1 ч. 18 м.
Вид битрейта : Постоянный
Битрейт : 448 Кбит/сек
Каналы : 2 канала
Расположение каналов : Front: L R
Частота : 48,0 КГц
Битовая глубина : 16 бит
Метод сжатия : С потерями
Размер потока : 253 Мбайт (10%)
Default : Да
Forced : Нет
DURATION : 01:18:50.080000000
NUMBER_OF_FRAMES : 147816
NUMBER_OF_BYTES : 264886272
_STATISTICS_WRITING_APP : mkvmerge v7.6.0 ('Garden of Dreams') 32bit built on Feb 8 2015 12:51:39
_STATISTICS_WRITING_DATE_UTC : 2016-12-25 14:43:16
_STATISTICS_TAGS : BPS DURATION NUMBER_OF_FRAMES NUMBER_OF_BYTES

Релиз подготовлен 60 - fps

[Цитировать]
Edik

Мальчики наши дубинки вернулись"!
 
Показать сообщения:    

Текущее время: 26-Май 02:52

Часовой пояс: UTC + 3


Вы не можете начинать темы
Вы не можете отвечать на сообщения
Вы не можете редактировать свои сообщения
Вы не можете удалять свои сообщения
Вы не можете голосовать в опросах
Вы не можете прикреплять файлы к сообщениям
Вы не можете скачивать файлы