[Цитировать]
ZHz

Исполнитель: Morandi
Название: Angels
Год выхода: 2007
Продолжительность: 00:03:49--Кодек: AVC
Формат: MKV
Качество: TVRip
Видео: 640x328, 59,940 fps, 1865 kb/s
Аудио: MPEG Audio 197 Kbps, 2 channels, 44.1 KHz

MediaInfo

General
Unique ID : 233685839942956985163149123545315359639 (0xAFCE4173C177F0D7AD0CFF58E0773B97)
Complete name : J:\60FPS\Morandi - Angels\Morandi - Angels.mkv
Format : Matroska
Format version : Version 2
File size : 57.6 MiB
Duration : 3mn 49s
Overall bit rate mode : Variable
Overall bit rate : 2 105 Kbps
Encoded date : UTC 2015-03-10 13:10:45
Writing application : mkvmerge v7.5.0 ('Glass Culture') 32bit built on Jan 10 2015 09:41:31
Writing library : libebml v1.3.1 + libmatroska v1.4.2
Video
ID : 1
Format : AVC
Format/Info : Advanced Video Codec
Format profile : Main@L3.1
Format settings, CABAC : Yes
Format settings, ReFrames : 7 frames
Codec ID : V_MPEG4/ISO/AVC
Duration : 3mn 49s
Bit rate : 1 865 Kbps
Width : 640 pixels
Height : 328 pixels
Display aspect ratio : 1.951
Frame rate mode : Constant
Frame rate : 60.000 fps
Color space : YUV
Chroma subsampling : 4:2:0
Bit depth : 8 bits
Scan type : Progressive
Bits/(Pixel*Frame) : 0.148
Stream size : 51.1 MiB (89%)
Writing library : x264 core 144 r2525 40bb568
Encoding settings : cabac=1 / ref=7 / deblock=1:0:0 / analyse=0x1:0x111 / me=esa / subme=7 / psy=1 / psy_rd=1.40:0.30 / mixed_ref=1 / me_range=4 / chroma_me=1 / trellis=2 / 8x8dct=0 / cqm=0 / deadzone=21,11 / fast_pskip=1 / chroma_qp_offset=-4 / threads=12 / lookahead_threads=2 / sliced_threads=0 / nr=0 / decimate=1 / interlaced=0 / bluray_compat=0 / constrained_intra=0 / bframes=4 / b_pyramid=2 / b_adapt=2 / b_bias=0 / direct=1 / weightb=1 / open_gop=0 / weightp=2 / keyint=250 / keyint_min=25 / scenecut=40 / intra_refresh=0 / rc_lookahead=50 / rc=crf / mbtree=1 / crf=16.0 / qcomp=0.60 / qpmin=0 / qpmax=69 / qpstep=4 / ip_ratio=1.40 / aq=1:1.00
Default : Yes
Forced : No
Audio
ID : 2
Format : MPEG Audio
Format version : Version 1
Format profile : Layer 3
Mode : Joint stereo
Codec ID : A_MPEG/L3
Codec ID/Hint : MP3
Duration : 3mn 42s
Bit rate mode : Variable
Bit rate : 197 Kbps
Channel(s) : 2 channels
Sampling rate : 44.1 KHz
Compression mode : Lossy
Stream size : 5.23 MiB (9%)
Default : Yes
Forced : No

Скриншоты

 
Показать сообщения:    

Текущее время: 20-Окт 02:45

Часовой пояс: UTC + 3


Вы не можете начинать темы
Вы не можете отвечать на сообщения
Вы не можете редактировать свои сообщения
Вы не можете удалять свои сообщения
Вы не можете голосовать в опросах
Вы не можете прикреплять файлы к сообщениям
Вы не можете скачивать файлы