[Цитировать]
BOT2

-Монстры на каникулах 3D / Hotel Transylvania 3DГод выпуска: 2012
Страна: США
Жанр: мультфильм, фэнтези, комедия, семейный
Продолжительность: 01:31:31
Перевод: Дубляж-Режиссер: Генндий Тартаковский / Genndy Tartakovsky-В ролях: Адам Сэндлер (Dracula, озвучка), Энди Сэмберг (Jonathan, озвучка), Селена Гомес (Mavis, озвучка), Кевин Джеймс (Frankenstein, озвучка), Фрэн Дрешер (Eunice, озвучка), Стив Бушеми (Wayne, озвучка), Молли Шеннон (Wanda, озвучка), Дэвид Спейд (Griffin, озвучка), Си-Ло (Murray, озвучка), Джон Ловиц (Quasimodo, озвучка), Брайан Джордж (Suit of Armor, озвучка), Луэнелль (Shrunken Heads, озвучка)-Описание:
Граф Дракула для себя и своей любимой дочки построил хорошо укрытый от посторонних глаз отель, куда монстры со всего света приезжают отдохнуть от семейных забот, повседневной суеты и, конечно... людей. Но вездесущие американские туристы проникают и сюда.-Рейтинг
-Качество: BDRip 720p / 60 FPS
Формат 3D [Горизонтальная анаморфная стереопара]
Порядок ракурсов [Левый ракурс первый]
Формат: MKV
Видео кодек: AVC
Аудио кодек: AC3
Видео: AVC, 1280x688 (1.860), 7944 kbps, 59,940 fps, 0,150 bpp
Аудио: русский / AC3 / 5.1 / 48 kHz / 640 kbps / 16 bit Дубляж - -

MI

General
Unique ID : 198816307851641351349364010136277414911 (0x9592A0C95A4C04C7A5DD7E23DD28F3FF)
Complete name : E:\Кодировка\Раздача\Монстры на каникулах 60fps.mkv
Format : Matroska
Format version : Version 4 / Version 2
File size : 5.49 GiB
Duration : 1h 31mn
Overall bit rate : 8 589 Kbps
Encoded date : UTC 2015-07-15 14:35:59
Writing application : mkvmerge v7.0.0 ('Where We Going') 64bit built on Jun 9 2014 15:16:27
Writing library : libebml v1.3.0 + libmatroska v1.4.1
Video
ID : 2
Format : AVC
Format/Info : Advanced Video Codec
Format profile : High@L4.1
Format settings, CABAC : Yes
Format settings, ReFrames : 9 frames
Codec ID : V_MPEG4/ISO/AVC
Duration : 1h 31mn
Bit rate : 7 944 Kbps
Width : 1 280 pixels
Height : 688 pixels
Display aspect ratio : 1.860
Frame rate : 59.940 fps
Color space : YUV
Chroma subsampling : 4:2:0
Bit depth : 8 bits
Scan type : Progressive
Bits/(Pixel*Frame) : 0.150
Stream size : 4.97 GiB (91%)
Writing library : x264 core 146 r2538 121396c
Encoding settings : cabac=1 / ref=9 / deblock=1:0:0 / analyse=0x3:0 / me=umh / subme=10 / psy=1 / psy_rd=1.00:0.10 / mixed_ref=1 / me_range=42 / chroma_me=0 / trellis=2 / 8x8dct=1 / cqm=0 / deadzone=21,11 / fast_pskip=0 / chroma_qp_offset=-3 / threads=12 / lookahead_threads=3 / sliced_threads=0 / nr=0 / decimate=0 / interlaced=0 / bluray_compat=0 / constrained_intra=0 / bframes=16 / b_pyramid=2 / b_adapt=2 / b_bias=0 / direct=3 / weightb=1 / open_gop=0 / weightp=2 / keyint=250 / keyint_min=25 / scenecut=40 / intra_refresh=0 / rc_lookahead=40 / rc=2pass / mbtree=1 / bitrate=7944 / ratetol=1.0 / qcomp=0.60 / qpmin=0 / qpmax=69 / qpstep=4 / cplxblur=20.0 / qblur=0.5 / ip_ratio=1.40 / aq=1:0.90
Language : English
Default : Yes
Forced : No
Audio
ID : 1
Format : AC-3
Format/Info : Audio Coding 3
Mode extension : CM (complete main)
Codec ID : A_AC3
Duration : 1h 31mn
Bit rate mode : Constant
Bit rate : 640 Kbps
Channel(s) : 6 channels
Channel positions : Front: L C R, Side: L R, LFE
Sampling rate : 48.0 KHz
Bit depth : 16 bits
Compression mode : Lossy
Stream size : 419 MiB (7%)
Language : Russian
Default : Yes
Forced : No

Скриншоты

[Цитировать]
envy

32771280x688
не правильный аспект!!!!)))
3277mbtree=1
Не нужно!!!
Это мылит картинку.
3277psy_rd=1.00:0.10
Не нужно!!!
всё по нулям!!!
Где то может и четче, а где-то происходит слияние линий и получается БОРЩ!)))
Не критикую, просто советы)))

[Цитировать]
BOT2

Привет! На mbtree=1 я так то галочку снял, я думал что отключил. По поводу остального, учту
 
Показать сообщения:    

Текущее время: 03-Дек 16:38

Часовой пояс: UTC + 3


Вы не можете начинать темы
Вы не можете отвечать на сообщения
Вы не можете редактировать свои сообщения
Вы не можете удалять свои сообщения
Вы не можете голосовать в опросах
Вы не можете прикреплять файлы к сообщениям
Вы не можете скачивать файлы