VIP

Новые мутанты / The New Mutants (2020) BDRip 1080p | 60 fps Грань будущего / Edge of Tomorrow (2014) BDRip 1080p | 60 fps Доктор Стрэндж / Doctor Strange (2016) BDRip 1080p | 60 fps Закат цивилизации / Extinction (2018) BDRip 1080p | 60 fps Проект Power / Project Power (2020) WEBRip 1080p | 60 fps Стрелок / Shooter (2007) BDRip 1080p | 60 fps Интерстеллар / Interstellar (2014) BDRip 1080p | IMAX Edition | 60fps Трансформеры: Антология / Transformers: Antology (2007-2014) BDRip 1080p | 60 fps
  1. Longevity:
    6 years 7 months
    Posts:
    2414
    Gender:
    Male
    «Знакомьтесь с Кричем»- Информация
    Название: Монстр-траки
    Оригинальное название: Monster Trucks
    Год выхода: 2016
    Жанр: Фантастика, боевик, комедия, семейный
    Режиссер: Крис Уэдж
    Сценарий: Дерек Коннолли, Мэттью Робинсон, Джонатан Айбел
    Продюсер: Мэри Пэрент, Дэнис Л. Стюарт, Джонатан Айбел
    В ролях: Лукас Тилл, Джейн Леви, Томас Леннон, Бэрри Пеппер, Роб Лоу, Дэнни Гловер, Эми Райан, Холт МакКэллани, Фрэнк Уэйли, Алийа О’Брайен
    --Сюжет:
    Старшеклассник Трипп мечтает сбежать из скучного городка, где родился и вырос, и увлеченно собирает монстр-трак из обломков старых авто. И когда происшествие на буровой вышке высвобождает из-под земли удивительное создание, знающее толк в скорости, у Триппа появляется реальный шанс не только наконец-то изменить жизнь, но и обрести настоящего друга… Если, конечно, никто не вмешается.
    - Страна: США, Канада
    Продолжительность: 01:44:44

    Файл
    Кодек: MPEG4/ISO/AVC H.264
    Формат: MKV
    Качество: BDRip 720p | 60 fps
    Видео: 1280 x 534 (2.397) | 59.940 fps | 8.0 Мбит/сек
    Аудио 1: AC3 | 5.1 | 48 kHz | 384 kbps | 16 bit | Дубляж - iTunes |
    Аудио 2: AC3 | 5.1 | 48 kHz | 640 kbps | 16 bit | ENG |
    Субтитры: Русские (forced, full), английские (full, SDH)

    MedifInfo

    Видео
    Идентификатор : 1
    Формат : AVC
    Формат/Информация : Advanced Video Codec
    Профиль формата : [email protected]
    Параметр CABAC формата : Да
    Параметр ReFrames формата : 5 кадров
    Идентификатор кодека : V_MPEG4/ISO/AVC
    Продолжительность : 1 ч. 44 м.
    Битрейт : 7999 Кбит/сек
    Ширина : 1280 пикселей
    Высота : 534 пикселя
    Соотношение сторон : 2,40:1
    Режим частоты кадров : Постоянный
    Частота кадров : 59,880 кадров/сек
    Частота кадров в оригинале : 59,940 кадров/сек
    Цветовое пространство : YUV
    Субдискретизация насыщенности : 4:2:0
    Битовая глубина : 8 бит
    Тип развёртки : Прогрессивная
    Бит/(Пиксели*Кадры) : 0.195
    Размер потока : 5,72 Гбайт (87%)
    Заголовок : www.60-fps.org
    Библиотека кодирования : x264 core 148 r2638 7599210
    Настройки программы : cabac=1 / ref=5 / deblock=1:-3:-3 / analyse=0x3:0x113 / me=umh / subme=8 / psy=1 / psy_rd=1.00:0.25 / mixed_ref=1 / me_range=32 / chroma_me=1 / trellis=1 / 8x8dct=1 / cqm=0 / deadzone=6,6 / fast_pskip=1 / chroma_qp_offset=-4 / threads=12 / lookahead_threads=2 / sliced_threads=0 / nr=0 / decimate=0 / interlaced=0 / bluray_compat=0 / constrained_intra=0 / bframes=3 / b_pyramid=2 / b_adapt=2 / b_bias=0 / direct=3 / weightb=1 / open_gop=0 / weightp=2 / keyint=599 / keyint_min=59 / scenecut=40 / intra_refresh=0 / rc_lookahead=50 / rc=2pass / mbtree=1 / bitrate=7999 / ratetol=1.0 / qcomp=0.80 / qpmin=0 / qpmax=69 / qpstep=4 / cplxblur=20.0 / qblur=0.5 / vbv_maxrate=62500 / vbv_bufsize=78125 / nal_hrd=none / filler=0 / ip_ratio=1.10 / aq=1:0.50
    Default : Да
    Forced : Нет
    Аудио #1
    Идентификатор : 2
    Формат : AC-3
    Формат/Информация : Audio Coding 3
    Расширение режима : CM (complete main)
    Параметр Endianness формата : Big
    Идентификатор кодека : A_AC3
    Продолжительность : 1 ч. 44 м.
    Вид битрейта : Постоянный
    Битрейт : 384 Кбит/сек
    Каналы : 6 каналов
    Расположение каналов : Front: L C R, Side: L R, LFE
    Частота : 48,0 КГц
    Битовая глубина : 16 бит
    Метод сжатия : С потерями
    Задержка видео : 27 мс.
    Размер потока : 288 Мбайт (4%)
    Заголовок : Дубляж - iTunes
    Язык : Russian
    Default : Да
    Forced : Нет
    Аудио #2
    Идентификатор : 3
    Формат : AC-3
    Формат/Информация : Audio Coding 3
    Расширение режима : CM (complete main)
    Параметр Endianness формата : Big
    Идентификатор кодека : A_AC3
    Продолжительность : 1 ч. 44 м.
    Вид битрейта : Постоянный
    Битрейт : 640 Кбит/сек
    Каналы : 6 каналов
    Расположение каналов : Front: L C R, Side: L R, LFE
    Частота : 48,0 КГц
    Битовая глубина : 16 бит
    Метод сжатия : С потерями
    Размер потока : 479 Мбайт (7%)
    Заголовок : Original
    Язык : English
    Default : Нет
    Forced : Нет
    Текст #1
    Идентификатор : 4
    Формат : UTF-8
    Идентификатор кодека : S_TEXT/UTF8
    Идентификатор кодека/Информация : UTF-8 Plain Text
    Заголовок : Forced
    Язык : Russian
    Default : Да
    Forced : Нет
    Текст #2
    Идентификатор : 5
    Формат : UTF-8
    Идентификатор кодека : S_TEXT/UTF8
    Идентификатор кодека/Информация : UTF-8 Plain Text
    Заголовок : Full
    Язык : Russian
    Default : Нет
    Forced : Нет
    Текст #3
    Идентификатор : 6
    Формат : UTF-8
    Идентификатор кодека : S_TEXT/UTF8
    Идентификатор кодека/Информация : UTF-8 Plain Text
    Заголовок : Full
    Язык : English
    Default : Нет
    Forced : Нет
    Текст #4
    Идентификатор : 7
    Формат : UTF-8
    Идентификатор кодека : S_TEXT/UTF8
    Идентификатор кодека/Информация : UTF-8 Plain Text
    Заголовок : SDH
    Язык : English
    Default : Нет
    Forced : Нет
    Меню
    00:00:00.000 : en:00:00:00.000
    00:06:09.369 : en:00:06:09.369
    00:11:33.735 : en:00:11:33.735
    00:18:58.971 : en:00:18:58.971
    00:24:50.489 : en:00:24:50.489
    00:34:57.137 : en:00:34:57.137
    00:43:16.928 : en:00:43:16.928
    00:47:54.872 : en:00:47:54.872
    00:53:32.000 : en:00:53:32.000
    00:58:24.668 : en:00:58:24.668
    01:05:10.698 : en:01:05:10.698
    01:13:26.652 : en:01:13:26.652
    01:20:47.634 : en:01:20:47.634
    01:26:58.505 : en:01:26:58.505
    01:33:13.671 : en:01:33:13.671
    01:38:44.669 : en:01:38:44.669

    Release was prepared by 60-fps.org



    Last edited by Kryl on 2017-04-17 07:58; edited 1 time in total
  2. Longevity:
    4 years 8 months
    Posts:
    1586
    Gender:
    Male
    Ооооо,ваще кайфовый фильмец,ждал его... Хитренький
    02-Apr-2017 11:30 (after 1 hour 31 minute)
  3. Longevity:
    4 years 7 months
    Posts:
    9
    Gender:
    Unknown
    Семейная комедия, но опять для планшетного качества. Фильм - сплошные гонки.Опять будут дрожать контуры и дёргаться картинка в динамичных сценах.А для истинных почитателей кино в 1080р будет?
    Сомневаюсь
    02-Apr-2017 14:31 (after 3 hours)
  4. Longevity:
    6 years 7 months
    Posts:
    2414
    Gender:
    Male
    неее , не будет ..
    02-Apr-2017 17:49 (after 3 hours)
  5. Longevity:
    5 years 4 months
    Posts:
    11
    Gender:
    Male
    Ооооооо..... Огромное спасибо.
    После просмотра в кинотеатре сын постоянно канючит что хочет еще ))))
    02-Apr-2017 19:01 (after 1 hour 11 minutes)
  6. Longevity:
    5 years 1 month
    Posts:
    5
    Gender:
    Unknown
    Хороший фильм, огромное спасибо!
    08-Mar-2018 13:21 (after 11 months 5 days)


You cannot post new topics in this forum
You cannot reply to topics in this forum
You cannot edit your posts in this forum
You cannot delete your posts in this forum
You cannot vote in polls in this forum
You cannot attach files in this forum
You cannot download files in this forum