[Цитировать]
Marselos

«From the terrifying best seller»- Информация о фильме
Название: Молчание ягнят
Оригинальное название: The Silence of the Lambs
Год выхода: 1990
Жанр: триллер, криминал, детектив, драма
Режиссер: Джонатан Демме
В ролях: Джоди Фостер, Энтони Хопкинс, Брук Смит, Скотт Гленн, Тед Левайн, Энтони Хилд, Кейси Леммонс, Дайан Бэйкер, Чарльз Нэпьер, Роджер Корман
О фильме:
Описание
Психопат похищает и убивает молодых женщин по всему Среднему Западу Америки. ФБР, уверенное в том, что все преступления совершены одним и тем же человеком, поручает агенту Клариссе Стерлинг встретиться с заключенным-маньяком, который мог бы объяснить следствию психологические мотивы серийного убийцы и тем самым вывести на его след.
Заключенный, доктор психиатрии Ганнибал Лектер, отбывает наказание за убийства и каннибализм. Он согласен помочь Клариссе лишь в том случае, если она попотчует его больное воображение подробностями своей сложной личной жизни. Такие двусмысленные отношения не только порождают в душе Клариссы внутренний конфликт, но и сталкивают ее лицом к лицу с помешанным до гениальности убийцей.
Воплощение дьявола настолько сильно, что ей может не хватить мужества и стойкости, чтобы остановить его…
Страна: США
Студия: Metro-Goldwyn-Mayer
Продолжительность: 01:58:32
Перевод: Дублированный
Субтитры: Вшитые, отключаемые

Файл
Формат: MKV
Кодек: V_MPEG4/ISO/AVC
Качество: BDRip
Видео: 1920x1040, 59,940 fps, 1,85:1, 19,2 Мбит/сек
Аудио: DTS | 5.1 | 48 kHz | 768 kbps | 24 bit
Аудио: DTS HD | 5.1 | 48 kHz | 1509 Кбит/сек | 24 бит

MediaInfo

Общее
Уникальный идентификатор : 237088885320916257836619718357400835424 (0xB25DA88B12D60AA2B02F5B587EDA5560)
Полное имя : D:\Myrip60fps\TheSilenceoftheLambs1080p60fps.mkv
Формат : Matroska
Версия формата : Version 4 / Version 2
Размер файла : 19,0 Гбайт
Продолжительность : 1 ч. 58 м.
Общий поток : 23,0 Мбит/сек
Дата кодирования : UTC 2015-01-29 17:35:15
Программа кодирования : mkvmerge v7.5.0 ('Glass Culture') 64bit built on Jan 4 2015 16:48:44
Библиотека кодирования : libebml v1.3.1 + libmatroska v1.4.2
_STATISTICS_WRITING_APP : mkvmerge v7.5.0 ('Glass Culture') 64bit built on Jan 4 2015 16:48:44
_STATISTICS_WRITING_DATE_UTC : 2015-01-29 17:35:15
_STATISTICS_TAGS : BPS DURATION NUMBER_OF_FRAMES NUMBER_OF_BYTES
DURATION : 01:52:23.987000000
NUMBER_OF_FRAMES : 2586
NUMBER_OF_BYTES : 8438343
Видео
Идентификатор : 1
Формат : AVC
Формат/Информация : Advanced Video Codec
Профиль формата : High@L4.2
Параметр CABAC формата : Да
Параметр ReFrames формата : 4 кадра
Идентификатор кодека : V_MPEG4/ISO/AVC
Продолжительность : 1 ч. 58 м.
Битрейт : 19,2 Мбит/сек
Ширина : 1920 пикселей
Высота : 1040 пикселей
Соотношение сторон : 1,85:1
Режим частоты кадров : Постоянный
Частота кадров : 60,000 кадров/сек
Частота кадров в оригинале : 59,940 кадров/сек
Цветовое пространство : YUV
Субдискретизация насыщенности : 4:2:0
Битовая глубина : 8 бит
Тип развёртки : Прогрессивная
Бит/(Пиксели*Кадры) : 0.160
Размер потока : 15,5 Гбайт (82%)
Библиотека кодирования : x264 core 142 r2431 ac76440
Настройки программы : cabac=1 / ref=3 / deblock=1:0:0 / analyse=0x3:0x113 / me=hex / subme=7 / psy=1 / psy_rd=1.00:0.00 / mixed_ref=1 / me_range=16 / chroma_me=1 / trellis=1 / 8x8dct=1 / cqm=0 / deadzone=21,11 / fast_pskip=1 / chroma_qp_offset=-2 / threads=12 / lookahead_threads=2 / sliced_threads=0 / nr=0 / decimate=1 / interlaced=0 / bluray_compat=0 / constrained_intra=0 / bframes=3 / b_pyramid=2 / b_adapt=1 / b_bias=0 / direct=1 / weightb=1 / open_gop=0 / weightp=2 / keyint=599 / keyint_min=59 / scenecut=40 / intra_refresh=0 / rc_lookahead=40 / rc=2pass / mbtree=1 / bitrate=19199 / ratetol=1.0 / qcomp=0.60 / qpmin=0 / qpmax=69 / qpstep=4 / cplxblur=20.0 / qblur=0.5 / ip_ratio=1.40 / aq=1:1.00
Default : Да
Forced : Нет
Аудио #1
Идентификатор : 2
Формат : DTS
Формат/Информация : Digital Theater Systems
Профиль формата : HRA / Core
Режим : 16
Параметр Endianness формата : Big
Идентификатор кодека : A_DTS
Продолжительность : 1 ч. 58 м.
Вид битрейта : Постоянный
Битрейт : 3018 Кбит/сек / 1509 Кбит/сек
Каналы : 6 каналов
Расположение каналов : Front: L C R, Side: L R, LFE
Частота : 48,0 КГц
Битовая глубина : 24 бит
Метод сжатия : С потерями
Размер потока : 2,50 Гбайт (13%)
Язык : English
Default : Нет
Forced : Нет
Аудио #2
Идентификатор : 3
Формат : DTS
Формат/Информация : Digital Theater Systems
Режим : 16
Параметр Endianness формата : Big
Идентификатор кодека : A_DTS
Продолжительность : 1 ч. 58 м.
Вид битрейта : Постоянный
Битрейт : 768 Кбит/сек
Каналы : 6 каналов
Расположение каналов : Front: L C R, Side: L R, LFE
Частота : 48,0 КГц
Битовая глубина : 24 бит
Метод сжатия : С потерями
Размер потока : 651 Мбайт (3%)
Язык : Russian
Default : Да
Forced : Да
Текст
Идентификатор : 4
Формат : PGS
Режим смешивания : zlib
Идентификатор кодека : S_HDMV/PGS
Идентификатор кодека/Информация : The same subtitle format used on BDs/HD-DVDs
Язык : Russian
Default : Нет
Forced : Нет
Меню
00:00:00.000 : ru:00:00:00.000
00:05:16.274 : ru:00:05:16.274
00:08:14.411 : ru:00:08:14.411
00:11:48.583 : ru:00:11:48.583
00:21:39.340 : ru:00:21:39.340
00:26:58.826 : ru:00:26:58.826
00:31:38.480 : ru:00:31:38.480
00:34:59.848 : ru:00:34:59.848
00:38:39.317 : ru:00:38:39.317
00:41:14.389 : ru:00:41:14.389
00:46:40.965 : ru:00:46:40.965
00:49:43.981 : ru:00:49:43.981
00:51:35.718 : ru:00:51:35.718
00:57:45.337 : ru:00:57:45.337
00:59:30.233 : ru:00:59:30.233
01:01:09.875 : ru:01:01:09.875
01:05:57.120 : ru:01:05:57.120
01:14:14.200 : ru:01:14:14.200
01:18:24.366 : ru:01:18:24.366
01:21:11.617 : ru:01:21:11.617
01:25:08.437 : ru:01:25:08.437
01:27:16.022 : ru:01:27:16.022
01:33:16.674 : ru:01:33:16.674
01:36:41.045 : ru:01:36:41.045
01:37:34.724 : ru:01:37:34.724
01:39:57.116 : ru:01:39:57.116
01:43:17.483 : ru:01:43:17.483
01:51:04.658 : ru:01:51:04.658


Последний раз редактировалось: Marselos (2015-01-29 22:07), всего редактировалось 1 раз

[Цитировать]
Андрей 60

А нельзя чуть-чуть газку?

[Цитировать]
The Guy

Андрей 60, у меня стоит на раздаче.Если что - на ночь оставлю комп включенным.Аплоад норм - в районе 3-10Мб.

[Цитировать]
Лилия

Marselos, сделайте, пожалуйста,
Молчание ягнят / The Silence of the Lambs (1990) BDRip 720p | 60fps :flirt:

[Цитировать]
Лилия

Вернитесь кто-нибудь на раздачу, пожалуйста!

[Цитировать]
Леша

Ребята, оставьте раздачу, очень хочется пересмотреть шедевр в этом качестве, пожалуйста!

[Цитировать]
The Guy

Делаю все возможное!Файл фильма сейчас не у меня,но попросил друга,чтоб устроил раздачу.Завтра,может,будет результат.

[Цитировать]
MichaelBFG

Встаньте пожалуйста на раздачу ! и интересно а Ганнибал почему не делаете?
 
Показать сообщения:    

Текущее время: 06-Дек 15:10

Часовой пояс: UTC + 3


Вы не можете начинать темы
Вы не можете отвечать на сообщения
Вы не можете редактировать свои сообщения
Вы не можете удалять свои сообщения
Вы не можете голосовать в опросах
Вы не можете прикреплять файлы к сообщениям
Вы не можете скачивать файлы