1. Longevity:
    4 years 6 months
    Posts:
    267
    Gender:
    Male
    Заказать фильмы, клипы или любое другое видео в качестве 60fps может каждый!!!
    Стоимость одного видео 50руб. !!!
    Пишите Талямба в личку, всё обсудите...
    Младенец на прогулке, или Ползком от гангстеров / Baby's Day Out (1994) WEBRip 1080p | 60 fps Информация
    Название: Младенец на прогулке, или Ползком от гангстеров
    Оригинальное название: Baby's Day Out
    Год выхода: 1994
    Жанр: Комедия, криминал, драма, приключения, семейный
    Режиссер: Патрик Рид Джонсон / Patrick Read Johnson
    В ролях: Джо Мантенья, Лара Флинн Бойл, Джо Пантольяно, Брайан Хейли, Синтия Никсон, Фред Долтон Томпсон, Джон Невилл, Мэттью Глэйв, Адам Роберт Уортон, Джейкоб Джозеф Уортон
    Страна: США
    Продолжительность: 1 ч. 38 м. 52 с.
    -- Сюжет:
    Малыш Бинк путешествует по городу весь день: необычные места, потрясающие виды, но он гуляет совершенно один! Отчаянно разыскиваемый собственными родителями, ставший знаменитым, благодаря прессе, малыш противостоит группе гангстеров, охотящихся за ним ради денег, предложенных его богатыми родителями. Невозмутимый, собранный и абсолютно не сознающий всех разрушений, которые он производит, малыш создаст столько неприятностей бандитам, что никаких денег им не захочется! -- Файл
    Кодек: V_MPEG4/ISO/AVC
    Формат: MKV
    Качество: WEBRip 1080p | 60 fps
    Видео: 1920 x 1040 (1,85:1) | 59,940 fps | 10.0 Мбит/сек
    Аудио 1: AC3, 6ch, 384 kb/s, 48.0 KHz | MVO R5 |
    Аудио 2: AC3, 2ch, 192 kb/s, 48.0 KHz | DVO Laser Video |
    Аудио 3: AC3, 2ch, 192 kb/s, 48.0 KHz | MVO 1 канал |
    Аудио 4: AC3, 2ch, 192 kb/s, 48.0 KHz | DVO Ren-TV |
    Аудио 6: AC3, 6ch, 256 kb/s, 48.0 KHz | ENG Оригинал |

    MedifInfo

    Общее
    Уникальный идентификатор : 177158726032851690598933726818393302853 (0x8547878FC6F84599AA338CABE16EA745)
    Полное имя : D:\Movie\Младенец на прогулке, или Ползком от гангстеров.(1994).WEBRip.1080p.60fps.mkv
    Формат : Matroska
    Версия формата : Version 2
    Размер файла : 7,74 Гбайт
    Продолжительность : 1 ч. 38 м.
    Общий поток : 11,2 Мбит/сек
    Название фильма : Младенец на прогулке (1994) https://60-fps.org/
    Дата кодирования : UTC 2021-04-05 05:45:06
    Программа кодирования : mkvmerge v5.8.0 ('No Sleep / Pillow') built on Sep 2 2012 15:37:04
    Библиотека кодирования : libebml v1.2.3 + libmatroska v1.3.0
    Attachments : Poster
    Видео
    Идентификатор : 1
    Формат : AVC
    Формат/Информация : Advanced Video Codec
    Профиль формата : [email protected]
    Параметр CABAC формата : Да
    Параметр ReFrames формата : 4 кадра
    Режим смешивания : Header stripping
    Идентификатор кодека : V_MPEG4/ISO/AVC
    Продолжительность : 1 ч. 38 м.
    Битрейт : 10000 Кбит/сек
    Ширина : 1920 пикселей
    Высота : 1040 пикселей
    Соотношение сторон : 1,85:1
    Режим частоты кадров : Постоянный
    Частота кадров : 59,940 (60000/1001) кадров/сек
    Цветовое пространство : YUV
    Субдискретизация насыщенности : 4:2:0
    Битовая глубина : 8 бит
    Тип развёртки : Прогрессивная
    Бит/(Пиксели*Кадры) : 0.084
    Размер потока : 6,75 Гбайт (87%)
    Библиотека кодирования : x264 core 146 r2538 121396c
    Настройки программы : cabac=1 / ref=4 / deblock=1:0:0 / analyse=0x3:0x113 / me=umh / subme=8 / psy=1 / psy_rd=1.00:0.25 / mixed_ref=1 / me_range=16 / chroma_me=1 / trellis=1 / 8x8dct=1 / cqm=0 / deadzone=6,6 / fast_pskip=1 / chroma_qp_offset=-4 / threads=12 / lookahead_threads=3 / sliced_threads=0 / nr=0 / decimate=0 / interlaced=0 / bluray_compat=0 / constrained_intra=0 / bframes=3 / b_pyramid=2 / b_adapt=2 / b_bias=0 / direct=3 / weightb=1 / open_gop=0 / weightp=2 / keyint=600 / keyint_min=60 / scenecut=40 / intra_refresh=0 / rc_lookahead=50 / rc=2pass / mbtree=1 / bitrate=10000 / ratetol=1.0 / qcomp=0.80 / qpmin=0 / qpmax=69 / qpstep=4 / cplxblur=20.0 / qblur=0.5 / vbv_maxrate=50000 / vbv_bufsize=50000 / nal_hrd=none / filler=0 / ip_ratio=1.10 / aq=1:0.50
    Язык : English
    Default : Да
    Forced : Нет
    Аудио #1
    Идентификатор : 2
    Формат : AC-3
    Формат/Информация : Audio Coding 3
    Расширение режима : CM (complete main)
    Параметр Endianness формата : Big
    Режим смешивания : Header stripping
    Идентификатор кодека : A_AC3
    Продолжительность : 1 ч. 38 м.
    Вид битрейта : Постоянный
    Битрейт : 384 Кбит/сек
    Каналы : 6 каналов
    Расположение каналов : Front: L C R, Side: L R, LFE
    Частота : 48,0 КГц
    Частота кадров : 31,250 кадров/сек (1536 spf)
    Битовая глубина : 16 бит
    Метод сжатия : С потерями
    Размер потока : 272 Мбайт (3%)
    Заголовок : MVO R5
    Язык : Russian
    Default : Да
    Forced : Нет
    Аудио #2
    Идентификатор : 3
    Формат : AC-3
    Формат/Информация : Audio Coding 3
    Расширение режима : CM (complete main)
    Параметр Endianness формата : Big
    Режим смешивания : Header stripping
    Идентификатор кодека : A_AC3
    Продолжительность : 1 ч. 38 м.
    Вид битрейта : Постоянный
    Битрейт : 192 Кбит/сек
    Каналы : 2 канала
    Расположение каналов : Front: L R
    Частота : 48,0 КГц
    Частота кадров : 31,250 кадров/сек (1536 spf)
    Битовая глубина : 16 бит
    Метод сжатия : С потерями
    Размер потока : 136 Мбайт (2%)
    Заголовок : DVO Laser Video
    Язык : Russian
    Default : Нет
    Forced : Нет
    Аудио #3
    Идентификатор : 4
    Формат : AC-3
    Формат/Информация : Audio Coding 3
    Расширение режима : CM (complete main)
    Параметр Endianness формата : Big
    Режим смешивания : Header stripping
    Идентификатор кодека : A_AC3
    Продолжительность : 1 ч. 38 м.
    Вид битрейта : Постоянный
    Битрейт : 192 Кбит/сек
    Каналы : 2 канала
    Расположение каналов : Front: L R
    Частота : 48,0 КГц
    Частота кадров : 31,250 кадров/сек (1536 spf)
    Битовая глубина : 16 бит
    Метод сжатия : С потерями
    Размер потока : 136 Мбайт (2%)
    Заголовок : MVO 1 канал
    Язык : Russian
    Default : Нет
    Forced : Нет
    Аудио #4
    Идентификатор : 5
    Формат : AC-3
    Формат/Информация : Audio Coding 3
    Расширение режима : CM (complete main)
    Параметр Endianness формата : Big
    Режим смешивания : Header stripping
    Идентификатор кодека : A_AC3
    Продолжительность : 1 ч. 38 м.
    Вид битрейта : Постоянный
    Битрейт : 192 Кбит/сек
    Каналы : 1 канал
    Расположение каналов : Front: C
    Частота : 48,0 КГц
    Частота кадров : 31,250 кадров/сек (1536 spf)
    Битовая глубина : 16 бит
    Метод сжатия : С потерями
    Размер потока : 136 Мбайт (2%)
    Заголовок : DVO Ren-TV
    Язык : Russian
    Default : Нет
    Forced : Нет
    Аудио #5
    Идентификатор : 6
    Формат : E-AC-3
    Формат/Информация : Enhanced Audio Coding 3
    Параметр Endianness формата : Big
    Режим смешивания : Header stripping
    Идентификатор кодека : A_EAC3
    Продолжительность : 1 ч. 38 м.
    Вид битрейта : Постоянный
    Битрейт : 256 Кбит/сек
    Каналы : 6 каналов
    Расположение каналов : Front: L C R, Side: L R, LFE
    Частота : 48,0 КГц
    Частота кадров : 187,500 кадров/сек (256 spf)
    Метод сжатия : С потерями
    Размер потока : 181 Мбайт (2%)
    Язык : English
    Default : Нет
    Forced : Нет

    Release was prepared by 60-fps.org



You cannot post new topics in this forum
You cannot reply to topics in this forum
You cannot edit your posts in this forum
You cannot delete your posts in this forum
You cannot vote in polls in this forum
You cannot attach files in this forum
You cannot download files in this forum