Топ Топиков за 24 часа
 
Джон Уик 2 / John Wick: Chapter Two (2017) BDRip 720p | 60 fps Форсаж 8 / The Fate of the Furious (2017) BDRip 1080p | 60 fps Стражи Галактики. Часть 2 / Guardians of the Galaxy Vol. 2 (2017) BDRip 1080p | 60 fps Великая стена / The Great Wall (2016) BDRip 1080p | 60 fps Призрак в доспехах / Ghost in the Shell (2017) BDRip 1080p | 60 fps Форсаж 8 / The Fate of the Furious (2017) BDRip 720p | 60 fps Варкрафт / Warcraft (2016) BDRip 1080p | 60 fps Доктор Стрэндж / Doctor Strange (2016) BDRip 1080p | 60 fps Конг: Остров черепа / Kong: Skull Island (2017) BDRip 1080p | 60 fps Аватар / Avatar (2009) BDRip 1080p | 120 fps | Extended Collector's Cut | Experimental Чужой: Завет / Alien: Covenant (2016) BDRip 720p | 60 fps Логан / Logan (2017) BDRip 1080p | 60 fps
  1. bot

    Стаж:
    3 года 1 месяц
    Сообщений:
    413
    Пол:
    Не указан
    -Название: Миссия «Серенити» / Serenity
    Оригинальное название: Миссия «Серенити» / Serenity
    Год выпуска: 2005
    Страна: США
    Жанр: фантастика, боевик, триллер, приключения
    Продолжительность: 01:59:03
    Перевод: Дубляж
    Субтитры:Русские (Полные), английские (полные)
    Вид субтитров Вшитые, отключаемые
    Главы Есть-Режиссер: Джосс Уидон / Joss Whedon-В ролях: Нэйтан Филлион (Mal), Джина Торрес (Zoe), Алан Тьюдик (Wash), Морена Баккарин (Inara), Адам Болдуин (Jayne), Джуэл Стэйт (Kaylee), Шон Маэр (Simon), Саммер Глау (River), Рон Гласс (Shepherd Derrial Book), Чиветель Эджиофор (The Operative), Дэвид Крамхолц (Mr. Universe), Майкл Хичкок (Dr. Mathias)-Описание:
    Космический «морской волк» и ветеран Гражданской Галактической войны Малькольм «Мэл» Рейнольдс - теперь всего лишь капитан транспортного корабля. Когда они взяли на борт пассажиров - молодого доктора и его странную сестру с телепатическими способностями, ни он, ни его товарищи не предполагали, в какую историю ввяжутся. Спасаясь сразу от нескольких могущественных врагов - и от военных сил тоталитарного Вселенского Альянса, и от ужасных каннибалов Жнецов, команда корабля даже не догадывалась, какая угроза скрывается на борту «Серенити».-Рейтинг

    imdb.com: 8.00 (203 526)
    MPAA: PG-13 - Детям до 13 лет просмотр не желателен-Качество: BDRip 1080p / 60 FPS
    Формат: MKV
    Видео кодек: AVC
    Аудио кодек:AC3
    Видео: AVC, 1920x816, 12208 kbps, 59,940 fps
    Аудио №1: русский / AC3 / 5.1 / 48 kHz / 448 kbps / 16 bit |Дубляж|
    Аудио №2: русский / AC3 / 5.1 / 48 kHz / 448 kbps / 16 bit |Многоголосный, закадровый Tycoon|
    Аудио №3: английский / AC3 / 5.1 / 48 kHz / 640 kbps / 16 bit- -

    Внимание!

    Перед скачиванием обязательно проверьте сэмпл на своем оборудовании.

    Благодарности

    Raven за помощ при создании релиза и обложки

    MI

    General
    Unique ID : 217693623994660497274863477737469847559 (0xA3C644549077C0EAA0D81EAF67012807)
    Complete name : A:1080p 60fpsМиссия Серенити 1080p 60fps.mkv
    Format : Matroska
    Format version : Version 4 / Version 2
    File size : 11.7 GiB
    Duration : 1h 59mn
    Overall bit rate : 14.0 Mbps
    Encoded date : UTC 2014-09-14 01:45:53
    Writing application : mkvmerge v6.9.1 ('Blue Panther') 64bit built on Apr 18 2014 18:23:38
    Writing library : libebml v1.3.0 + libmatroska v1.4.1
    Video
    ID : 1
    Format : AVC
    Format/Info : Advanced Video Codec
    Format profile : High@L4.1
    Format settings, CABAC : Yes
    Format settings, ReFrames : 4 frames
    Codec ID : V_MPEG4/ISO/AVC
    Duration : 1h 59mn
    Bit rate : 12.2 Mbps
    Width : 1 920 pixels
    Height : 816 pixels
    Display aspect ratio : 2.35:1
    Frame rate : 59.940 fps
    Color space : YUV
    Chroma subsampling : 4:2:0
    Bit depth : 8 bits
    Scan type : Progressive
    Bits/(Pixel*Frame) : 0.130
    Stream size : 10.2 GiB (87%)
    Writing library : x264 core 133 r2334 a3ac64b
    Encoding settings : cabac=1 / ref=4 / deblock=1:-1:-1 / analyse=0x3:0 / me=umh / subme=9 / psy=1 / psy_rd=1.00:0.10 / mixed_ref=1 / me_range=42 / chroma_me=0 / trellis=2 / 8x8dct=1 / cqm=0 / deadzone=21,11 / fast_pskip=0 / chroma_qp_offset=-3 / threads=12 / lookahead_threads=1 / sliced_threads=0 / nr=0 / decimate=0 / interlaced=0 / bluray_compat=0 / constrained_intra=0 / bframes=5 / b_pyramid=2 / b_adapt=2 / b_bias=0 / direct=1 / weightb=1 / open_gop=0 / weightp=2 / keyint=594 / keyint_min=59 / scenecut=40 / intra_refresh=0 / rc=crf / mbtree=0 / crf=16.0 / qcomp=0.60 / qpmin=0 / qpmax=69 / qpstep=4 / ip_ratio=1.40 / pb_ratio=1.30 / aq=0
    Language : English
    Default : Yes
    Forced : No
    Audio #1
    ID : 2
    Format : AC-3
    Format/Info : Audio Coding 3
    Mode extension : CM (complete main)
    Codec ID : A_AC3
    Duration : 1h 59mn
    Bit rate mode : Constant
    Bit rate : 448 Kbps
    Channel(s) : 6 channels
    Channel positions : Front: L C R, Side: L R, LFE
    Sampling rate : 48.0 KHz
    Bit depth : 16 bits
    Compression mode : Lossy
    Stream size : 382 MiB (3%)
    Title : Дубляж
    Language : Russian
    Default : Yes
    Forced : No
    Audio #2
    ID : 3
    Format : AC-3
    Format/Info : Audio Coding 3
    Mode extension : CM (complete main)
    Codec ID : A_AC3
    Duration : 1h 59mn
    Bit rate mode : Constant
    Bit rate : 448 Kbps
    Channel(s) : 6 channels
    Channel positions : Front: L C R, Side: L R, LFE
    Sampling rate : 48.0 KHz
    Bit depth : 16 bits
    Compression mode : Lossy
    Stream size : 382 MiB (3%)
    Title : Многоголосный, закадровый Tycoon
    Language : Russian
    Default : No
    Forced : No
    Audio #3
    ID : 4
    Format : AC-3
    Format/Info : Audio Coding 3
    Mode extension : CM (complete main)
    Codec ID : A_AC3
    Duration : 1h 59mn
    Bit rate mode : Constant
    Bit rate : 640 Kbps
    Channel(s) : 6 channels
    Channel positions : Front: L C R, Side: L R, LFE
    Sampling rate : 48.0 KHz
    Bit depth : 16 bits
    Compression mode : Lossy
    Stream size : 545 MiB (5%)
    Title : Оригинал
    Language : English
    Default : No
    Forced : No
    Text #1
    ID : 5
    Format : UTF-8
    Codec ID : S_TEXT/UTF8
    Codec ID/Info : UTF-8 Plain Text
    Title : Полные
    Language : Russian
    Default : No
    Forced : No
    Text #2
    ID : 6
    Format : UTF-8
    Codec ID : S_TEXT/UTF8
    Codec ID/Info : UTF-8 Plain Text
    Title : Полные
    Language : English
    Default : No
    Forced : No
    Menu
    00:00:00.000 : en:Chapter 1
    00:05:00.000 : en:Chapter 2
    00:10:00.000 : en:Chapter 3
    00:15:00.000 : en:Chapter 4
    00:20:00.000 : en:Chapter 5
    00:25:00.000 : en:Chapter 6
    00:30:00.000 : en:Chapter 7
    00:35:00.000 : en:Chapter 8
    00:40:00.000 : en:Chapter 9
    00:45:00.000 : en:Chapter 10
    00:50:00.000 : en:Chapter 11
    00:55:00.000 : en:Chapter 12
    01:00:00.000 : en:Chapter 13
    01:05:00.000 : en:Chapter 14
    01:10:00.000 : en:Chapter 15
    01:15:00.000 : en:Chapter 16
    01:20:00.000 : en:Chapter 17
    01:25:00.000 : en:Chapter 18
    01:30:00.000 : en:Chapter 19
    01:35:00.000 : en:Chapter 20
    01:40:00.000 : en:Chapter 21
    01:45:00.000 : en:Chapter 22
    01:50:00.000 : en:Chapter 23
    01:55:00.000 : en:Chapter 24

    Скриншоты



Вы не можете начинать темы
Вы не можете отвечать на сообщения
Вы не можете редактировать свои сообщения
Вы не можете удалять свои сообщения
Вы не можете голосовать в опросах
Вы не можете прикреплять файлы к сообщениям
Вы не можете скачивать файлы