[Цитировать]
Kryl

«Go rogue»- Информация
Название: Миссия невыполнима: Племя изгоев
Оригинальное название: Mission: Impossible - Rogue Nation
Год выхода: 2015
Жанр: Боевик, триллер, приключения
Режиссер: Кристофер МакКуорри
Сценарий: Кристофер МакКуорри, Брюс Геллер, Дрю Пирс
Продюсер: Джей Джей Абрамс, Брайан Берк, Том Круз
В ролях: Том Круз, Саймон Пегг, Ребекка Фергюсон, Джереми Реннер, Алек Болдуин, Америка Оливо, Винг Реймз, Шон Харрис, Саймон МакБерни, Гермиона Корфилд
--Сюжет:
Когда ОМН распускают, и Итан Хант остается не у дел, его команда неожиданно сталкивается с разветвленной международной сетью высокопрофессиональных спецагентов — Синдикатом. Это «племя изгоев» одержимо идеей установления нового мирового порядка и планирует серию разрушительных терактов. Итан и компания объединяются с дискредитированным британским агентом Ильзой Фауст и приступают к своей самой невыполнимой миссии…- - Страна: США, Гонконг, Китай
Продолжительность: 02:11:47

Файл
Кодек: MPEG4/ISO/AVC H.264
Формат: MKV
Качество: BDRip 720p 60 fps
Видео: 1280x544 (2.35:1) | 59.940 fps | 11.7 Мбит/сек
Аудио 1: DTS-HD | 5.1 | 48 kHz | 256 kbps | 24 bit | Дубляж |
Аудио 2: AC3 | 5.1 | 48 kHz | 640 kbps | 16 bit | Дубляж |
Субтитры: Русские (форсированные, полные), Английские (форсированные, полные)

MedifInfo

Video
ID : 1
Format : AVC
Format/Info : Advanced Video Codec
Format profile : High@L4.1
Format settings, CABAC : Yes
Format settings, ReFrames : 4 frames
Codec ID : V_MPEG4/ISO/AVC
Duration : 2h 11mn
Bit rate : 11.8 Mbps
Nominal bit rate : 8 327 Kbps
Width : 1 280 pixels
Height : 544 pixels
Display aspect ratio : 2.35:1
Frame rate : 59.940 fps
Color space : YUV
Chroma subsampling : 4:2:0
Bit depth : 8 bits
Scan type : Progressive
Bits/(Pixel*Frame) : 0.282
Stream size : 10.8 GiB (82%)
Writing library : x264 core 146 r2538 121396c
Encoding settings : cabac=1 / ref=4 / deblock=1:0:0 / analyse=0x3:0x113 / me=umh / subme=11 / psy=1 / psy_rd=1.00:0.00 / mixed_ref=1 / me_range=24 / chroma_me=1 / trellis=2 / 8x8dct=1 / cqm=0 / deadzone=21,11 / fast_pskip=1 / chroma_qp_offset=-2 / threads=12 / lookahead_threads=3 / sliced_threads=0 / nr=0 / decimate=1 / interlaced=0 / bluray_compat=0 / constrained_intra=0 / bframes=16 / b_pyramid=2 / b_adapt=2 / b_bias=0 / direct=1 / weightb=1 / open_gop=0 / weightp=2 / keyint=250 / keyint_min=25 / scenecut=40 / intra_refresh=0 / rc=2pass / mbtree=0 / bitrate=8327 / ratetol=1.0 / qcomp=0.60 / qpmin=0 / qpmax=69 / qpstep=4 / cplxblur=20.0 / qblur=0.5 / ip_ratio=1.40 / pb_ratio=1.30 / aq=1:1.00
Language : English
Default : Yes
Forced : No
Audio #1
ID : 2
Format : DTS
Format/Info : Digital Theater Systems
Format profile : MA / Core
Codec ID : A_DTS
Duration : 2h 11mn
Bit rate mode : Variable
Bit rate : 1 597 Kbps / 1 510 Kbps
Channel(s) : 8 channels / 6 channels
Channel positions : Front: L C R, Side: L R, Back: L R, LFE / Front: L C R, Side: L R, LFE
Sampling rate : 48.0 KHz
Bit depth : 24 bits
Compression mode : Lossless / Lossy
Title : Русский: DTS-HD Master Audio / 7.1 / 48 kHz / 5313 kbps / 24-bit (DTS Core: 5.1 / 48 kHz / 1509 kbps / 24-bit)
Language : Russian
Default : No
Forced : No
Audio #2
ID : 3
Format : AC-3
Format/Info : Audio Coding 3
Mode extension : CM (complete main)
Codec ID : A_AC3
Duration : 2h 11mn
Bit rate mode : Constant
Bit rate : 640 Kbps
Channel(s) : 6 channels
Channel positions : Front: L C R, Side: L R, LFE
Sampling rate : 48.0 KHz
Bit depth : 16 bits
Compression mode : Lossy
Stream size : 602 MiB (4%)
Title : Дубляж
Language : Russian
Default : Yes
Forced : No
Text #1
ID : 4
Format : UTF-8
Codec ID : S_TEXT/UTF8
Codec ID/Info : UTF-8 Plain Text
Title : Forced
Language : Russian
Default : Yes
Forced : No
Text #2
ID : 5
Format : UTF-8
Codec ID : S_TEXT/UTF8
Codec ID/Info : UTF-8 Plain Text
Title : Full
Language : Russian
Default : No
Forced : No
Text #3
ID : 6
Format : UTF-8
Codec ID : S_TEXT/UTF8
Codec ID/Info : UTF-8 Plain Text
Title : Forced
Language : English
Default : No
Forced : No
Text #4
ID : 7
Format : UTF-8
Codec ID : S_TEXT/UTF8
Codec ID/Info : UTF-8 Plain Text
Title : Full
Language : English
Default : No
Forced : No
Menu
00:00:00.000 : en:Chapter 1
00:09:53.091 : en:Chapter 2
00:20:45.701 : en:Chapter 3
00:25:32.071 : en:Chapter 4
00:32:00.667 : en:Chapter 5
00:40:03.442 : en:Chapter 6
00:49:35.554 : en:Chapter 7
01:01:01.157 : en:Chapter 8
01:09:51.686 : en:Chapter 9
01:20:20.856 : en:Chapter 10
01:29:29.322 : en:Chapter 11
01:38:32.823 : en:Chapter 12
01:48:19.408 : en:Chapter 13
01:57:13.943 : en:Chapter 14
02:03:02.707 : en:Chapter 15

[Цитировать]
ENIGMA

Большое Спасибо!)

[Цитировать]
dzubakr

зачем такое "гуано" снимать??
 
Показать сообщения:    

Текущее время: 05-Дек 05:25

Часовой пояс: UTC + 3


Вы не можете начинать темы
Вы не можете отвечать на сообщения
Вы не можете редактировать свои сообщения
Вы не можете удалять свои сообщения
Вы не можете голосовать в опросах
Вы не можете прикреплять файлы к сообщениям
Вы не можете скачивать файлы