«Миссия невыполнима» - серия фильмов-боевиков, состоящая из пяти частей, выпущенных с 1996 по 2015 год и основанная на одноимённом телесериале. В центре сюжета — история агента Итана Ханта, которого на протяжении всех фильмов играет Том Круз.

Миссия: невыполнима / Mission: Impossible (1996)

«Expect the Impossible»- Информация
Название: Миссия: невыполнима
Оригинальное название: Mission: Impossible
Год выхода: 1996
Жанр: боевик, триллер, приключения
Режиссер: Брайан Де Пальма
Сценарий: Дэвид Кепп, Брюс Геллер, Роберт Таун
Продюсер: Том Круз, Пола Вагнер, Дж.С. Калчиано
В ролях: Том Круз, Джон Войт, Эммануэль Беар, Генри Черны, Жан Рено, Винг Рэймс, Кристин Скотт Томас, Ванесса Рэдгрейв, Дэйл Дай, Марсель Юрес, Ингеборга Дапкунайте, Марек Васут, Джон МакЛафлин, Рольф Саксон, Карел Добры, Андреас Вишневски, Дэвид Шэйффер
--Сюжет:
Агент ЦРУ Итан Хант оказался в положении подозреваемого в предательстве «крота», из-за которого погибли несколько членов его команды, включая руководителя группы Джима Фелпса. В живых осталась еще только коллега Ханта — жена Фелпса агент Клэр. Чтобы снять с себя обвинения в предательстве, Ханту надо найти настоящего «крота».
- - Страна: США
Продолжительность: 01:50:12

Файл
Кодек: MPEG4/ISO/AVC H.264
Формат: MKV
Качество: BDRip-AVC | 60 fps
Видео: 1024x424 (2.40:1) | 59.940 fps | 3.9 Мбит/сек
Аудио: AC3 | 5.1 | 48 kHz | 448 kbps | 16 bit | Позитив-мультимедиа |
Субтитры: русские (Полные), английские (Полные)

MedifInfo

Video
ID : 1
Format : AVC
Format/Info : Advanced Video Codec
Format profile : High@L4.1
Format settings, CABAC : Yes
Format settings, ReFrames : 4 frames
Codec ID : V_MPEG4/ISO/AVC
Duration : 1h 50mn
Bit rate : 3 900 Kbps
Width : 1 024 pixels
Height : 424 pixels
Display aspect ratio : 2.40:1
Frame rate : 59.940 fps
Color space : YUV
Chroma subsampling : 4:2:0
Bit depth : 8 bits
Scan type : Progressive
Bits/(Pixel*Frame) : 0.150
Stream size : 2.94 GiB (88%)
Writing library : x264 core 146 r2538 121396c
Encoding settings : cabac=1 / ref=3 / deblock=1:0:0 / analyse=0x3:0x113 / me=umh / subme=9 / psy=1 / psy_rd=1.00:0.10 / mixed_ref=1 / me_range=32 / chroma_me=1 / trellis=2 / 8x8dct=1 / cqm=0 / deadzone=21,11 / fast_pskip=0 / chroma_qp_offset=-3 / threads=12 / lookahead_threads=3 / sliced_threads=0 / nr=0 / decimate=1 / interlaced=0 / bluray_compat=0 / constrained_intra=0 / bframes=16 / b_pyramid=2 / b_adapt=2 / b_bias=0 / direct=3 / weightb=1 / open_gop=0 / weightp=2 / keyint=250 / keyint_min=25 / scenecut=40 / intra_refresh=0 / rc_lookahead=40 / rc=2pass / mbtree=1 / bitrate=3900 / ratetol=1.0 / qcomp=0.60 / qpmin=0 / qpmax=69 / qpstep=4 / cplxblur=20.0 / qblur=0.5 / vbv_maxrate=14000 / vbv_bufsize=14000 / nal_hrd=none / filler=0 / ip_ratio=1.40 / aq=1:1.00
Language : English
Default : Yes
Forced : No
Audio
ID : 2
Format : AC-3
Format/Info : Audio Coding 3
Mode extension : CM (complete main)
Codec ID : A_AC3
Duration : 1h 50mn
Bit rate mode : Constant
Bit rate : 448 Kbps
Channel(s) : 6 channels
Channel positions : Front: L C R, Side: L R, LFE
Sampling rate : 48.0 KHz
Bit depth : 16 bits
Compression mode : Lossy
Stream size : 353 MiB (10%)
Title : MVO Позитив-Мультимедия
Language : Russian
Default : Yes
Forced : No
Text #1
ID : 3
Format : UTF-8
Codec ID : S_TEXT/UTF8
Codec ID/Info : UTF-8 Plain Text
Title : Полные
Language : Russian
Default : No
Forced : No
Text #2
ID : 4
Format : UTF-8
Codec ID : S_TEXT/UTF8
Codec ID/Info : UTF-8 Plain Text
Title : Полные
Language : English
Default : No
Forced : No
Menu
00:00:00.000 : en:Kiev
00:03:00.972 : en:Good Morning, Mr. Phelps
00:10:44.727 : en:Golitsyn
00:26:43.811 : en:Mole Hunt
00:32:21.481 : en:Job 3:14
00:39:50.388 : en:Max
00:49:39.143 : en:Disavowed
00:55:45.634 : en:The Black Vault
01:12:25.716 : en:NOC List
01:18:34.460 : en:No More Secrets
01:28:14.539 : en:Masquerade
01:38:06.714 : en:Red Light Green Light
01:44:02.778 : en:"Aruba, Perhaps?"

Миссия: невыполнима 2 / Mission: Impossible II (2000)

«Expect the impossible again»- Информация
Название: Миссия: невыполнима 2
Оригинальное название: Mission: Impossible II
Год выхода: 2000
Жанр: боевик, триллер, приключения
Режиссер: Джон Ву
Сценарий: Брюс Геллер, Роберт Таун, Рональд Д. Мур
Продюсер: Том Круз, Пола Вагнер, Тэжэньцэ Чан
В ролях: Том Круз , Дюгрэй Скотт , Тэнди Ньютон , Винг Рэймс , Ричард Роксбург , Джон Полсон , Брендан Глисон , Раде Шербеджия , Уильям Мапотер , Доминик Пурселл
--Сюжет:
Если мир внезапно оказывается перед лицом ужасной катастрофы, есть лишь один человек, который может исправить это ужасное положение. Его имя Итан Хант, он прирожденный специалист по разрешению самых неразрешимых ситуаций.
Теперь у Итана — новый, строгий начальник, новая очаровательная возлюбленная, новый коварный противник и новое задание, которое простому смертному просто не по плечу. Но Итан Хант не был бы Итаном Хантом, если бы не смог с блеском выполнить очередную невыполнимую миссию: справиться с кровожадными террористами и спасти планету от ужасного, смертельного вируса!
- - Страна: США, Германия
Продолжительность: 02:03:35

Файл
Кодек: MPEG4/ISO/AVC H.264
Формат: MKV
Качество: BDRip-AVC | 60 fps
Видео: 1024x424 (2.40:1) | 59.940 fps | 3.9 Мбит/сек
Аудио: AC3 | 5.1 | 48 kHz | 448 kbps | 16 bit | Позитив-мультимедиа |
Субтитры: русские (Полные), английские (Полные)

MedifInfo

Video
ID : 1
Format : AVC
Format/Info : Advanced Video Codec
Format profile : High@L4.1
Format settings, CABAC : Yes
Format settings, ReFrames : 4 frames
Codec ID : V_MPEG4/ISO/AVC
Duration : 2h 3mn
Bit rate : 3 900 Kbps
Width : 1 024 pixels
Height : 424 pixels
Display aspect ratio : 2.40:1
Frame rate : 59.940 fps
Color space : YUV
Chroma subsampling : 4:2:0
Bit depth : 8 bits
Scan type : Progressive
Bits/(Pixel*Frame) : 0.150
Stream size : 3.30 GiB (88%)
Writing library : x264 core 146 r2538 121396c
Encoding settings : cabac=1 / ref=3 / deblock=1:0:0 / analyse=0x3:0x113 / me=umh / subme=9 / psy=1 / psy_rd=1.00:0.10 / mixed_ref=1 / me_range=32 / chroma_me=1 / trellis=2 / 8x8dct=1 / cqm=0 / deadzone=21,11 / fast_pskip=0 / chroma_qp_offset=-3 / threads=12 / lookahead_threads=3 / sliced_threads=0 / nr=0 / decimate=1 / interlaced=0 / bluray_compat=0 / constrained_intra=0 / bframes=16 / b_pyramid=2 / b_adapt=2 / b_bias=0 / direct=3 / weightb=1 / open_gop=0 / weightp=2 / keyint=250 / keyint_min=25 / scenecut=40 / intra_refresh=0 / rc_lookahead=40 / rc=2pass / mbtree=1 / bitrate=3900 / ratetol=1.0 / qcomp=0.60 / qpmin=0 / qpmax=69 / qpstep=4 / cplxblur=20.0 / qblur=0.5 / vbv_maxrate=14000 / vbv_bufsize=14000 / nal_hrd=none / filler=0 / ip_ratio=1.40 / aq=1:1.00
Language : English
Default : Yes
Forced : No
Audio
ID : 2
Format : AC-3
Format/Info : Audio Coding 3
Mode extension : CM (complete main)
Codec ID : A_AC3
Duration : 2h 3mn
Bit rate mode : Constant
Bit rate : 448 Kbps
Channel(s) : 6 channels
Channel positions : Front: L C R, Side: L R, LFE
Sampling rate : 48.0 KHz
Bit depth : 16 bits
Compression mode : Lossy
Stream size : 396 MiB (10%)
Title : MVO Позитив-Мультимедия
Language : Russian
Default : Yes
Forced : No
Text #1
ID : 3
Format : UTF-8
Codec ID : S_TEXT/UTF8
Codec ID/Info : UTF-8 Plain Text
Title : Полные
Language : Russian
Default : No
Forced : No
Text #2
ID : 4
Format : UTF-8
Codec ID : S_TEXT/UTF8
Codec ID/Info : UTF-8 Plain Text
Title : Полные
Language : English
Default : No
Forced : No
Menu
00:00:00.000 : en:Old Friend
00:05:57.023 : en:Holiday
00:10:39.347 : en:I See You Found It
00:18:03.416 : en:Catch Me
00:23:47.343 : en:Sean Ambrose
00:34:47.877 : en:A Proper Welcome
00:45:40.071 : en:Don't Turn Around
00:56:08.407 : en:A Touch of the Flu
01:05:07.695 : en:Biocyte
01:11:38.961 : en:The Last Strain
01:18:24.742 : en:I Guess I Lied
01:25:59.905 : en:Supply and Demand
01:35:40.109 : en:Smile
01:40:16.802 : en:Race Against Time
01:49:33.692 : en:Mano a Mano
01:53:59.166 : en:Destroyed By Fire
01:58:58.590 : en:End Credits

Миссия: невыполнима 3 / Mission: Impossible III (2006)

«Миссия начинается 04:05:06»- Информация
Название: Миссия: невыполнима 3
Оригинальное название: Mission: Impossible III
Год выхода: 2006
Жанр: боевик, триллер, приключения
Режиссер: Джей Джей Абрамс
Сценарий: Алекс Куртцман, Роберто Орси, Джей Джей Абрамс
Продюсер: Том Круз, Пола Вагнер, Артур Андерсон
В ролях: Том Круз, Филип Сеймур Хоффман, Винг Рэймс, Билли Крудап, Мишель Монахэн, Джонатан Рис-Майерс, Кери Рассел, Мэгги Кью, Саймон Пегг, Эдди Марсан
--Сюжет:
Суперагент Итан Хант решил расстаться с оперативной работой и заняться подготовкой курсантов. Он даже решил жениться на привлекательной, ни о чём не ведающей Джулии. Руководство ЦРУ просит его принять участие в последней операции: спасении его бывшей ученицы Линдси Феррис из лап торговца оружием Оуэна Дэвиана. Мог ли Итан предположить, что за этим заданием последует целая череда смертельно опасных миссий в Ватикане, Нью-Йорке и Шанхае?
- - Страна: США, Германия, Китай
Продолжительность: 02:05:24

Файл
Кодек: MPEG4/ISO/AVC H.264
Формат: MKV
Качество: BDRip-AVC | 60 fps
Видео: 1024x432 (2.35:1) | 59.940 fps | 3.8 Мбит/сек
Аудио: AC3 | 5.1 | 48 kHz | 640 kbps | 16 bit | Дубляж |
Субтитры: русские (Полные), английские (Полные)

MedifInfo

Video
ID : 1
Format : AVC
Format/Info : Advanced Video Codec
Format profile : High@L4.1
Format settings, CABAC : Yes
Format settings, ReFrames : 4 frames
Codec ID : V_MPEG4/ISO/AVC
Duration : 2h 5mn
Bit rate : 3 850 Kbps
Width : 1 024 pixels
Height : 432 pixels
Display aspect ratio : 2.35:1
Frame rate : 59.940 fps
Color space : YUV
Chroma subsampling : 4:2:0
Bit depth : 8 bits
Scan type : Progressive
Bits/(Pixel*Frame) : 0.145
Stream size : 3.30 GiB (84%)
Writing library : x264 core 146 r2538 121396c
Encoding settings : cabac=1 / ref=3 / deblock=1:0:0 / analyse=0x3:0x113 / me=umh / subme=9 / psy=1 / psy_rd=1.00:0.10 / mixed_ref=1 / me_range=32 / chroma_me=1 / trellis=2 / 8x8dct=1 / cqm=0 / deadzone=21,11 / fast_pskip=0 / chroma_qp_offset=-3 / threads=12 / lookahead_threads=3 / sliced_threads=0 / nr=0 / decimate=1 / interlaced=0 / bluray_compat=0 / constrained_intra=0 / bframes=16 / b_pyramid=2 / b_adapt=2 / b_bias=0 / direct=3 / weightb=1 / open_gop=0 / weightp=2 / keyint=250 / keyint_min=25 / scenecut=40 / intra_refresh=0 / rc_lookahead=40 / rc=2pass / mbtree=1 / bitrate=3850 / ratetol=1.0 / qcomp=0.60 / qpmin=0 / qpmax=69 / qpstep=4 / cplxblur=20.0 / qblur=0.5 / vbv_maxrate=14000 / vbv_bufsize=14000 / nal_hrd=none / filler=0 / ip_ratio=1.40 / aq=1:1.00
Language : English
Default : Yes
Forced : No
Audio
ID : 2
Format : AC-3
Format/Info : Audio Coding 3
Mode extension : CM (complete main)
Codec ID : A_AC3
Duration : 2h 5mn
Bit rate mode : Constant
Bit rate : 640 Kbps
Channel(s) : 6 channels
Channel positions : Front: L C R, Side: L R, LFE
Sampling rate : 48.0 KHz
Bit depth : 16 bits
Compression mode : Lossy
Stream size : 574 MiB (14%)
Title : Дубляж
Language : Russian
Default : Yes
Forced : No
Text #1
ID : 3
Format : UTF-8
Codec ID : S_TEXT/UTF8
Codec ID/Info : UTF-8 Plain Text
Title : Полные
Language : Russian
Default : No
Forced : No
Text #2
ID : 4
Format : UTF-8
Codec ID : S_TEXT/UTF8
Codec ID/Info : UTF-8 Plain Text
Title : Полные
Language : English
Default : No
Forced : No
Menu
00:00:00.000 : :1. Count to Ten
00:04:02.533 : :2. Engagement Party
00:12:58.401 : :3. Agent Lindsey Farris
00:21:18.095 : :4. Chopper Chase
00:26:32.499 : :5. Intelligence
00:32:56.540 : :6. Trust and Understanding
00:39:30.515 : :7. The Vatican
00:46:56.606 : :8. Finding Davian
00:51:44.606 : :9. Indentity Theft
00:57:35.240 : :10. Dangerous Cargo
01:02:09.014 : :11. Bridge Attack
01:09:06.654 : :12. The Tables Turn
01:18:19.400 : :13. Shanghai
01:23:31.502 : :14. Skyscraper
01:27:35.367 : :15. Night Flight
01:34:08.019 : :16. It's Complicated
01:42:43.706 : :17. Mobile Navigator
01:51:11.098 : :18. Point and Shoot
01:57:27.954 : :19. Mission: Honeymoon

Миссия невыполнима: Протокол Фантом / Mission: Impossible - Ghost Protocol (2011)

«Плана нет. Помощи нет. Выбора нет»- Информация
Название: Миссия невыполнима: Протокол Фантом
Оригинальное название: Mission: Impossible - Ghost Protocol
Год выхода: 2011
Жанр: боевик, триллер, приключения
Режиссер: Брэд Бёрд
Сценарий: Джош Аппелбаум, Андре Немец, Брюс Геллер
Продюсер: Джей Джей Абрамс, Брайан Берк, Том Круз
В ролях: Том Круз, Пола Пэттон, Саймон Пегг, Джереми Реннер, Микаэл Нюквист, Владимир Машков, Самули Эдельманн, Иван Шведов, Анил Капур, Леа Сейду и др.
--Сюжет:
Специальный агент отряда «Миссия невыполнима» Итан Хант и его коллеги несправедливо обвинены в причастности к взрыву Кремля. Президент инициирует «Протокол Фантом», в результате которого спецподразделение ликвидировано, и Итан остается без какой-либо поддержки. Он намерен очистить свое доброе имя и предотвратить новую атаку, но делать это ему придется вместе с командой коллег, истинных мотивов которых он до конца не знает.
- - Страна: США, ОАЭ, Чехия
Продолжительность: 02:12:56

Файл
Кодек: MPEG4/ISO/AVC H.264
Формат: MKV
Качество: BDRip-AVC | 60 fps
Видео: 1024x424 (2.40:1) | 59.940 fps | 3.6 Мбит/сек
Аудио: AC3 | 5.1 | 48 kHz | 640 kbps | 16 bit | Дубляж |
Субтитры: русские (Форсированные), русские (Полные), английские (Полные)

MedifInfo

Video
ID : 1
Format : AVC
Format/Info : Advanced Video Codec
Format profile : High@L4.1
Format settings, CABAC : Yes
Format settings, ReFrames : 4 frames
Codec ID : V_MPEG4/ISO/AVC
Duration : 2h 12mn
Bit rate : 3 610 Kbps
Width : 1 024 pixels
Height : 424 pixels
Display aspect ratio : 2.40:1
Frame rate : 59.940 fps
Color space : YUV
Chroma subsampling : 4:2:0
Bit depth : 8 bits
Scan type : Progressive
Bits/(Pixel*Frame) : 0.139
Stream size : 3.28 GiB (83%)
Writing library : x264 core 146 r2538 121396c
Encoding settings : cabac=1 / ref=3 / deblock=1:0:0 / analyse=0x3:0x113 / me=umh / subme=9 / psy=1 / psy_rd=1.00:0.10 / mixed_ref=1 / me_range=32 / chroma_me=1 / trellis=2 / 8x8dct=1 / cqm=0 / deadzone=21,11 / fast_pskip=0 / chroma_qp_offset=-3 / threads=12 / lookahead_threads=3 / sliced_threads=0 / nr=0 / decimate=1 / interlaced=0 / bluray_compat=0 / constrained_intra=0 / bframes=16 / b_pyramid=2 / b_adapt=2 / b_bias=0 / direct=3 / weightb=1 / open_gop=0 / weightp=2 / keyint=250 / keyint_min=25 / scenecut=40 / intra_refresh=0 / rc_lookahead=40 / rc=2pass / mbtree=1 / bitrate=3610 / ratetol=1.0 / qcomp=0.60 / qpmin=0 / qpmax=69 / qpstep=4 / cplxblur=20.0 / qblur=0.5 / vbv_maxrate=14000 / vbv_bufsize=14000 / nal_hrd=none / filler=0 / ip_ratio=1.40 / aq=1:1.00
Language : English
Default : Yes
Forced : No
Audio
ID : 2
Format : AC-3
Format/Info : Audio Coding 3
Mode extension : CM (complete main)
Codec ID : A_AC3
Duration : 2h 12mn
Bit rate mode : Constant
Bit rate : 640 Kbps
Channel(s) : 6 channels
Channel positions : Front: L C R, Side: L R, LFE
Sampling rate : 48.0 KHz
Bit depth : 16 bits
Compression mode : Lossy
Stream size : 609 MiB (15%)
Title : Дубляж
Language : Russian
Default : Yes
Forced : No
Text #1
ID : 3
Format : UTF-8
Codec ID : S_TEXT/UTF8
Codec ID/Info : UTF-8 Plain Text
Title : Форсированные
Language : Russian
Default : Yes
Forced : No
Text #2
ID : 4
Format : UTF-8
Codec ID : S_TEXT/UTF8
Codec ID/Info : UTF-8 Plain Text
Title : Полные
Language : Russian
Default : No
Forced : No
Text #3
ID : 5
Format : UTF-8
Codec ID : S_TEXT/UTF8
Codec ID/Info : UTF-8 Plain Text
Title : Полные
Language : English
Default : No
Forced : No
Menu
00:00:00.000 : en:00:00:00.000
00:04:41.907 : en:00:04:41.907
00:11:28.897 : en:00:11:28.897
00:20:01.951 : en:00:20:01.951
00:27:35.320 : en:00:27:35.320
00:33:28.173 : en:00:33:28.173
00:38:18.087 : en:00:38:18.087
00:44:46.100 : en:00:44:46.100
00:51:37.219 : en:00:51:37.219
00:56:05.153 : en:00:56:05.153
01:02:50.183 : en:01:02:50.183
01:09:17.820 : en:01:09:17.820
01:16:32.379 : en:01:16:32.379
01:22:18.517 : en:01:22:18.517
01:31:17.055 : en:01:31:17.055
01:35:57.377 : en:01:35:57.377
01:42:49.914 : en:01:42:49.914
01:51:01.780 : en:01:51:01.780
01:58:26.391 : en:01:58:26.391
02:05:58.843 : en:02:05:58.843

Миссия невыполнима: Племя изгоев / Mission: Impossible - Rogue Nation (2015)

«Go rogue»- Информация
Название: Миссия невыполнима: Племя изгоев
Оригинальное название: Mission: Impossible - Rogue Nation
Год выхода: 2011
Жанр: боевик, триллер, приключения
Режиссер: Кристофер МакКуорри
Сценарий: Кристофер МакКуорри, Брюс Геллер, Дрю Пирс
Продюсер: Джей Джей Абрамс, Брайан Берк, Том Круз
В ролях: Том Круз, Ребекка Фергюсон, Саймон Пегг, Джереми Реннер, Винг Реймз, Шон Харрис, Алек Болдуин, Саймон МакБерни, Йенс Хультен, Том Холландер
--Сюжет:
Когда ОМН распускают, и Итан Хант остается не у дел, его команда неожиданно сталкивается с разветвленной международной сетью высокопрофессиональных спецагентов — Синдикатом. Это «племя изгоев» одержимо идеей установления нового мирового порядка и планирует серию разрушительных терактов. Итан и компания объединяются с дискредитированным британским агентом Ильзой Фауст и приступают к своей самой невыполнимой миссии…
- - Страна: США
Продолжительность: 02:11:33

Файл
Кодек: MPEG4/ISO/AVC H.264
Формат: MKV
Качество: BDRip-AVC | 60 fps
Видео: 1024x432 (2.35:1) | 59.940 fps | 3.6 Мбит/сек
Аудио: AC3 | 5.1 | 48 kHz | 640 kbps | 16 bit | Дубляж |
Субтитры: русские (Форсированные), русские (Полные), английские (Полные)

MedifInfo

Video
ID : 1
Format : AVC
Format/Info : Advanced Video Codec
Format profile : High@L4.1
Format settings, CABAC : Yes
Format settings, ReFrames : 4 frames
Codec ID : V_MPEG4/ISO/AVC
Duration : 2h 11mn
Bit rate : 3 650 Kbps
Width : 1 024 pixels
Height : 432 pixels
Display aspect ratio : 2.35:1
Frame rate : 59.940 fps
Color space : YUV
Chroma subsampling : 4:2:0
Bit depth : 8 bits
Scan type : Progressive
Bits/(Pixel*Frame) : 0.138
Stream size : 3.28 GiB (83%)
Writing library : x264 core 146 r2538 121396c
Encoding settings : cabac=1 / ref=3 / deblock=1:0:0 / analyse=0x3:0x113 / me=umh / subme=9 / psy=1 / psy_rd=1.00:0.10 / mixed_ref=1 / me_range=32 / chroma_me=1 / trellis=2 / 8x8dct=1 / cqm=0 / deadzone=21,11 / fast_pskip=0 / chroma_qp_offset=-3 / threads=12 / lookahead_threads=3 / sliced_threads=0 / nr=0 / decimate=1 / interlaced=0 / bluray_compat=0 / constrained_intra=0 / bframes=16 / b_pyramid=2 / b_adapt=2 / b_bias=0 / direct=3 / weightb=1 / open_gop=0 / weightp=2 / keyint=250 / keyint_min=25 / scenecut=40 / intra_refresh=0 / rc_lookahead=40 / rc=2pass / mbtree=1 / bitrate=3650 / ratetol=1.0 / qcomp=0.60 / qpmin=0 / qpmax=69 / qpstep=4 / cplxblur=20.0 / qblur=0.5 / vbv_maxrate=14000 / vbv_bufsize=14000 / nal_hrd=none / filler=0 / ip_ratio=1.40 / aq=1:1.00
Language : English
Default : Yes
Forced : No
Audio
ID : 2
Format : AC-3
Format/Info : Audio Coding 3
Mode extension : CM (complete main)
Codec ID : A_AC3
Duration : 2h 11mn
Bit rate mode : Constant
Bit rate : 640 Kbps
Channel(s) : 6 channels
Channel positions : Front: L C R, Side: L R, LFE
Sampling rate : 48.0 KHz
Bit depth : 16 bits
Compression mode : Lossy
Stream size : 602 MiB (15%)
Title : Дубляж
Language : Russian
Default : Yes
Forced : No
Text #1
ID : 3
Format : UTF-8
Codec ID : S_TEXT/UTF8
Codec ID/Info : UTF-8 Plain Text
Title : Форсированные
Language : Russian
Default : Yes
Forced : No
Text #2
ID : 4
Format : UTF-8
Codec ID : S_TEXT/UTF8
Codec ID/Info : UTF-8 Plain Text
Title : Полные
Language : Russian
Default : No
Forced : No
Text #3
ID : 5
Format : UTF-8
Codec ID : S_TEXT/UTF8
Codec ID/Info : UTF-8 Plain Text
Title : Полные
Language : English
Default : No
Forced : No
Menu
00:00:00.000 : en:Chapter 1
00:09:53.092 : en:Chapter 2
00:20:45.702 : en:Chapter 3
00:25:32.072 : en:Chapter 4
00:32:00.668 : en:Chapter 5
00:40:03.442 : en:Chapter 6
00:49:35.555 : en:Chapter 7
01:01:01.157 : en:Chapter 8
01:09:51.687 : en:Chapter 9
01:20:20.857 : en:Chapter 10
01:29:29.322 : en:Chapter 11
01:38:32.823 : en:Chapter 12
01:48:19.409 : en:Chapter 13
01:57:13.943 : en:Chapter 14
02:03:02.708 : en:Chapter 15
 
Показать сообщения:    

Текущее время: 02-Дек 21:07

Часовой пояс: UTC + 3


Вы не можете начинать темы
Вы не можете отвечать на сообщения
Вы не можете редактировать свои сообщения
Вы не можете удалять свои сообщения
Вы не можете голосовать в опросах
Вы не можете прикреплять файлы к сообщениям
Вы не можете скачивать файлы