1. Longevity:
    5 years 2 months
    Posts:
    1681
    Gender:
    Male
    Информация
    Название: MISHA CROSS & TINA KAY - GAME OF THRONES XXX PARODY
    Год выхода: 2017
    Жанр: Group,Sex,Uniform,POV,Orgy,Stripteas,Pornstar
    В ролях: Tina Kay,Misha Cross
    --Сюжет:
    Misha Cross & Tina Kay Game Of Thrones Xxx Parody
    Страна: США
    Продолжительность: 00:34:59

    Файл
    Кодек: MPEG4/ISO/AVC [email protected]
    Формат: MP4
    Качество: UHD 2K 1440p | 3D-Video | 60 fps
    Видео: 2880 x 1440 (2.000) | 60.000 fps | 10 Мбит/сек
    Аудио: AAC | 2.0 | 48 kHz |192 Кбит/сек | 16 bit | ENG |

    MedifInfo

    Видео
    Идентификатор : 1
    Формат : AVC
    Формат/Информация : Advanced Video Codec
    Профиль формата : [email protected]
    Параметр CABAC формата : Да
    Параметр ReFrames формата : 5 кадров
    Идентификатор кодека : avc1
    Идентификатор кодека/Информация : Advanced Video Coding
    Продолжительность : 34 м. 59 с.
    Битрейт : 10000 Кбит/сек
    Ширина : 2880 пикселей
    Высота : 1440 пикселей
    Соотношение сторон : 2,000
    Режим частоты кадров : Постоянный
    Частота кадров : 60,000 кадров/сек
    Цветовое пространство : YUV
    Субдискретизация насыщенности : 4:2:0
    Битовая глубина : 8 бит
    Тип развёртки : Прогрессивная
    Бит/(Пиксели*Кадры) : 0.040
    Размер потока : 2,43 Гбайт (98%)
    Библиотека кодирования : x264 core 152 r19 ba24899
    Настройки программы : cabac=1 / ref=5 / deblock=1:-1:-1 / analyse=0x3:0x113 / me=hex / subme=8 / psy=1 / psy_rd=1.00:0.15 / mixed_ref=1 / me_range=16 / chroma_me=1 / trellis=2 / 8x8dct=1 / cqm=0 / deadzone=21,11 / fast_pskip=1 / chroma_qp_offset=-3 / threads=4 / lookahead_threads=1 / sliced_threads=0 / nr=0 / decimate=1 / interlaced=0 / bluray_compat=0 / constrained_intra=0 / bframes=3 / b_pyramid=2 / b_adapt=1 / b_bias=0 / direct=3 / weightb=1 / open_gop=0 / weightp=2 / keyint=250 / keyint_min=25 / scenecut=0 / intra_refresh=0 / rc_lookahead=50 / rc=abr / mbtree=1 / bitrate=10000 / ratetol=1.0 / qcomp=0.60 / qpmin=0 / qpmax=69 / qpstep=4 / ip_ratio=1.40 / aq=1:1.00
    Аудио
    Идентификатор : 2
    Формат : AAC
    Формат/Информация : Advanced Audio Codec
    Профиль формата : LC
    Идентификатор кодека : 40
    Продолжительность : 35 м. 0 с.
    Вид битрейта : Постоянный
    Битрейт : 192 Кбит/сек
    Каналы : 2 канала
    Расположение каналов : Front: L R
    Частота : 44,1 КГц
    Частота кадров : 43,066 кадра/сек (1024 spf)
    Метод сжатия : С потерями
    Размер потока : 48,7 Мбайт (2%)
    Default : Да
    Alternate group : 1

    Скрин

  2. Longevity:
    5 years 2 months
    Posts:
    1681
    Gender:
    Male
    Через часик залью видео на сервер и можно будет качать на хорошей скорости... ! Подмигиваю
    29-Aug-2017 08:42 (after 1 minute)
  3. Longevity:
    5 years 2 months
    Posts:
    1681
    Gender:
    Male
    всё,качаем все... !!! Подмигиваю
    29-Aug-2017 09:49 (after 1 hour 7 minutes)
  4. Longevity:
    5 years 2 months
    Posts:
    1681
    Gender:
    Male
    Ожидание скоро будет ещё видео в 3D FullHD Фильм
    29-Aug-2017 09:51 (after 1 minute)
  5. Longevity:
    4 years 7 months
    Posts:
    19
    Gender:
    Male
    ты начал 4k сделать 60 FPS? Купил новый комп?
    29-Aug-2017 17:22 (after 7 hours)
  6. Longevity:
    5 years 3 months
    Posts:
    11
    Gender:
    Unknown
    Улыбаюсь
    29-Aug-2017 17:28 (after 6 minutes)
  7. Longevity:
    5 years 2 months
    Posts:
    1681
    Gender:
    Male
    anonimgo, ну почти,на работе по тихому проэксплотировал железо,пока начальство в отпусках... ! Бандит
    29-Aug-2017 18:22 (after 53 minutes)
  8. Longevity:
    4 years 9 months
    Posts:
    2
    Gender:
    Unknown
    пиры мало (
    11-Sep-2017 14:46 (after 12 days)
  9. Longevity:
    5 years 2 months
    Posts:
    1681
    Gender:
    Male
    ismayil112, 3 человека стоят на раздаче,что тебе нужно ?
    раздача активна,работает и скачивается... сколько тебе пиров нужно ? Умник
    11-Sep-2017 20:54 (after 6 hours)


You cannot post new topics in this forum
You cannot reply to topics in this forum
You cannot edit your posts in this forum
You cannot delete your posts in this forum
You cannot vote in polls in this forum
You cannot attach files in this forum
You cannot download files in this forum