«Парк откроется»- Информация
Название: Мир Юрского периода
Оригинальное название: Jurassic World
Год выхода: 2015
Жанр: Фантастика, приключения, боевик
Режиссер: Колин Треворроу
Сценарий: Рик Джаффа, Аманда Сильвер, Колин Треворроу
Продюсер: Патрик Краули, Фрэнк Маршалл, Кристофер Раймо
В ролях: Крис Пратт, Брайс Даллас Ховард, Ник Дж. Робинсон, Тай Симпкинс, Винсент Д’Онофрио, Ирфан Кхан, Омар Си, Б.Д. Вонг, Джейк Джонсон, Джуди Грир
--Сюжет:
Действие происходит через 22 года после событий «Парка Юрского периода». На острове Нублар функционирует парк, задуманный Джоном Хэммондом. Но к этому времени посещаемость уже начинает падать, и компания — владелец парка решает открыть новый аттракцион, чтобы привлечь посетителей. И вот снова тысячи людей спешат увидеть Мир Юрского периода, но безопасное на первый взгляд развлечение может обернуться угрозой для всего человечества...- - Страна: США, Китай
Продолжительность: 02:04:21
-- Файл
Кодек: MPEG4/ISO/AVC H.264
Формат: MKV
Качество: BDRip 720p (исходник Blu-ray Disc)
Видео: 1280x640 | 59.940 fps | 7.4 Мбит/сек
Аудио 1: AC3 | 5.1 | 48 kHz | 448 kbps | 16 bit | Дублированный |
Аудио 2: AC3 | 5.1 | 48 kHz | 448 kbps | 16 bit | ENG |
Субтитры: Русские | Полные, Английские | Полные

MedifInfo

Video
ID : 1
Format : AVC
Format/Info : Advanced Video Codec
Format profile : High@L4.1
Format settings, CABAC : Yes
Format settings, ReFrames : 9 frames
Codec ID : V_MPEG4/ISO/AVC
Duration : 2h 4mn
Bit rate : 7 462 Kbps
Width : 1 280 pixels
Height : 640 pixels
Display aspect ratio : 2.000
Frame rate mode : Constant
Frame rate : 59.880 fps
Original frame rate : 59.940 fps
Color space : YUV
Chroma subsampling : 4:2:0
Bit depth : 8 bits
Scan type : Progressive
Bits/(Pixel*Frame) : 0.152
Stream size : 6.48 GiB (88%)
Writing library : x264 core 146 r2538 121396c
Encoding settings : cabac=1 / ref=9 / deblock=1:0:0 / analyse=0x3:0x113 / me=umh / subme=10 / psy=1 / psy_rd=1.00:0.00 / mixed_ref=1 / me_range=24 / chroma_me=1 / trellis=2 / 8x8dct=1 / cqm=0 / deadzone=21,11 / fast_pskip=0 / chroma_qp_offset=-2 / threads=12 / lookahead_threads=1 / sliced_threads=0 / nr=0 / decimate=1 / interlaced=0 / bluray_compat=0 / constrained_intra=0 / bframes=5 / b_pyramid=2 / b_adapt=2 / b_bias=0 / direct=3 / weightb=1 / open_gop=0 / weightp=2 / keyint=250 / keyint_min=25 / scenecut=40 / intra_refresh=0 / rc_lookahead=40 / rc=crf / mbtree=0 / crf=18.0 / qcomp=0.60 / qpmin=0 / qpmax=69 / qpstep=4 / vbv_maxrate=14000 / vbv_bufsize=14000 / crf_max=0.0 / nal_hrd=none / filler=0 / ip_ratio=1.40 / pb_ratio=1.30 / aq=3:1.00
Language : English
Default : Yes
Forced : No
Audio #1
ID : 2
Format : AC-3
Format/Info : Audio Coding 3
Mode extension : CM (complete main)
Format settings, Endianness : Big
Codec ID : A_AC3
Duration : 2h 4mn
Bit rate mode : Constant
Bit rate : 448 Kbps
Channel(s) : 6 channels
Channel positions : Front: L C R, Side: L R, LFE
Sampling rate : 48.0 KHz
Compression mode : Lossy
Stream size : 398 MiB (5%)
Title : Dub
Language : Russian
Default : Yes
Forced : No
Audio #2
ID : 3
Format : AC-3
Format/Info : Audio Coding 3
Mode extension : CM (complete main)
Format settings, Endianness : Big
Codec ID : A_AC3
Duration : 2h 4mn
Bit rate mode : Constant
Bit rate : 448 Kbps
Channel(s) : 6 channels
Channel positions : Front: L C R, Side: L R, LFE
Sampling rate : 48.0 KHz
Compression mode : Lossy
Stream size : 398 MiB (5%)
Title : Eng
Language : English
Default : No
Forced : No
Text #1
ID : 4
Format : UTF-8
Codec ID : S_TEXT/UTF8
Codec ID/Info : UTF-8 Plain Text
Title : Rus forced
Language : Russian
Default : Yes
Forced : Yes
Text #2
ID : 5
Format : UTF-8
Codec ID : S_TEXT/UTF8
Codec ID/Info : UTF-8 Plain Text
Title : Rus full
Language : Russian
Default : No
Forced : No
Text #3
ID : 6
Format : UTF-8
Codec ID : S_TEXT/UTF8
Codec ID/Info : UTF-8 Plain Text
Title : Eng (SDH)
Language : English
Default : No
Forced : No
Menu
00:00:00.000 : en:Chapter 01
00:06:59.168 : en:Chapter 02
00:11:01.827 : en:Chapter 03
00:18:28.440 : en:Chapter 04
00:25:34.866 : en:Chapter 05
00:31:20.837 : en:Chapter 06
00:39:23.861 : en:Chapter 07
00:44:07.853 : en:Chapter 08
00:48:57.225 : en:Chapter 09
00:55:51.056 : en:Chapter 10
01:01:21.344 : en:Chapter 11
01:09:50.561 : en:Chapter 12
01:15:25.479 : en:Chapter 13
01:23:51.860 : en:Chapter 14
01:30:14.700 : en:Chapter 15
01:36:45.424 : en:Chapter 16
01:41:15.652 : en:Chapter 17
01:47:35.282 : en:Chapter 18
01:53:06.029 : en:Chapter 19
01:55:37.555 : en:Chapter 20
02:04:20.870 : en:Chapter 21


Последний раз редактировалось: bot (2015-09-30 11:11), всего редактировалось 1 раз
 
Показать сообщения:    

Текущее время: 24-Май 09:09

Часовой пояс: UTC + 3


Вы не можете начинать темы
Вы не можете отвечать на сообщения
Вы не можете редактировать свои сообщения
Вы не можете удалять свои сообщения
Вы не можете голосовать в опросах
Вы не можете прикреплять файлы к сообщениям
Вы не можете скачивать файлы