VIP

1917 / 1917 (2019) BDRip 1080p | 60 fps Плохие парни навсегда / Bad Boys for Life (2019) BDRip 1080p | 60 fps Интерстеллар / Interstellar (2014) BDRip 1080p | IMAX Edition | 60fps Хищные птицы: Потрясающая история Харли Квинн / Birds of Prey: And the Fantabulous Emancipation of One Harley Quinn (2020) BDRip 1080p | 60 fps Звёздные войны: Скайуокер. Восход / Star Wars: Episode IX - The Rise of Skywalker (2019) BDRip 1080p | 60 fps Джентльмены / The Gentlemen (2019) BDRip 1080p | 60 fps Доктор Стрэндж / Doctor Strange (2016) BDRip 1080p | 60 fps Остров фантазий / Fantasy Island (2020) BDRip 1080p | 60 fps
  1. Longevity:
    5 years 11 months
    Posts:
    2419
    Gender:
    Male
    «Парк откроется»- Информация
    Название: Мир Юрского периода
    Оригинальное название: Jurassic World
    Год выхода: 2015
    Жанр: Фантастика, приключения, боевик
    Режиссер: Колин Треворроу
    Сценарий: Рик Джаффа, Аманда Сильвер, Колин Треворроу
    Продюсер: Патрик Краули, Фрэнк Маршалл, Кристофер Раймо
    В ролях: Крис Пратт, Брайс Даллас Ховард, Ник Дж. Робинсон, Тай Симпкинс, Винсент Д’Онофрио, Ирфан Кхан, Омар Си, Б.Д. Вонг, Джейк Джонсон, Джуди Грир
    --Сюжет:
    Действие происходит через 22 года после событий «Парка Юрского периода». На острове Нублар функционирует парк, задуманный Джоном Хэммондом. Но к этому времени посещаемость уже начинает падать, и компания — владелец парка решает открыть новый аттракцион, чтобы привлечь посетителей. И вот снова тысячи людей спешат увидеть Мир Юрского периода, но безопасное на первый взгляд развлечение может обернуться угрозой для всего человечества...- - Страна: США, Китай
    Продолжительность: 02:04:21
    -- Файл
    Кодек: MPEG4/ISO/AVC H.264
    Формат: MKV
    Качество: BDRip 3D 1080p / 60 fps
    Формат 3D: Half OverUnder / Горизонтальная анаморфная стереопара
    Порядок ракурсов: Левый ракурс первый
    Видео: 1920x1080 (16:9) | 59.940 fps | 18.5 Мбит/сек
    Аудио: AC3 | 5.1 | 48 kHz | 640 kbps | 16 bit | Дублированный |
    Субтитры: Русские, украинские, английские

    MedifInfo

    Video
    ID : 1
    Format : AVC
    Format/Info : Advanced Video Codec
    Format profile : High@L4.1
    Format settings, CABAC : Yes
    Format settings, ReFrames : 4 frames
    Codec ID : V_MPEG4/ISO/AVC
    Duration : 2h 4mn
    Bit rate : 18.6 Mbps
    Width : 1 920 pixels
    Height : 1 080 pixels
    Display aspect ratio : 16:9
    Frame rate : 59.940 fps
    Color space : YUV
    Chroma subsampling : 4:2:0
    Bit depth : 8 bits
    Scan type : Progressive
    Bits/(Pixel*Frame) : 0.150
    Stream size : 15.8 GiB (95%)
    Writing library : x264 core 146 r2538 121396c
    Encoding settings : cabac=1 / ref=4 / deblock=1:0:0 / analyse=0x3:0x113 / me=umh / subme=9 / psy=1 / psy_rd=1.00:0.00 / mixed_ref=1 / me_range=23 / chroma_me=1 / trellis=2 / 8x8dct=1 / cqm=0 / deadzone=21,11 / fast_pskip=1 / chroma_qp_offset=-2 / threads=12 / lookahead_threads=3 / sliced_threads=0 / nr=0 / decimate=1 / interlaced=0 / bluray_compat=0 / constrained_intra=0 / bframes=16 / b_pyramid=2 / b_adapt=2 / b_bias=0 / direct=1 / weightb=1 / open_gop=0 / weightp=2 / keyint=250 / keyint_min=25 / scenecut=40 / intra_refresh=0 / rc=2pass / mbtree=0 / bitrate=18582 / ratetol=1.0 / qcomp=0.60 / qpmin=0 / qpmax=69 / qpstep=4 / cplxblur=20.0 / qblur=0.5 / ip_ratio=1.40 / pb_ratio=1.30 / aq=1:1.00
    Language : English
    Default : Yes
    Forced : No
    Audio
    ID : 2
    Format : AC-3
    Format/Info : Audio Coding 3
    Mode extension : CM (complete main)
    Codec ID : A_AC3
    Duration : 2h 4mn
    Bit rate mode : Constant
    Bit rate : 640 Kbps
    Channel(s) : 6 channels
    Channel positions : Front: L C R, Side: L R, LFE
    Sampling rate : 48.0 KHz
    Bit depth : 16 bits
    Compression mode : Lossy
    Stream size : 569 MiB (3%)
    Title : Дубляж
    Language : Russian
    Default : Yes
    Forced : No
    Text #1
    ID : 3
    Format : UTF-8
    Codec ID : S_TEXT/UTF8
    Codec ID/Info : UTF-8 Plain Text
    Default : Yes
    Forced : No
    Text #2
    ID : 4
    Format : UTF-8
    Codec ID : S_TEXT/UTF8
    Codec ID/Info : UTF-8 Plain Text
    Default : No
    Forced : No
    Text #3
    ID : 5
    Format : UTF-8
    Codec ID : S_TEXT/UTF8
    Codec ID/Info : UTF-8 Plain Text
    Default : No
    Forced : No
    Text #4
    ID : 6
    Format : UTF-8
    Codec ID : S_TEXT/UTF8
    Codec ID/Info : UTF-8 Plain Text
    Default : No
    Forced : No
    Text #5
    ID : 7
    Format : UTF-8
    Codec ID : S_TEXT/UTF8
    Codec ID/Info : UTF-8 Plain Text
    Default : No
    Forced : No
    Text #6
    ID : 8
    Format : UTF-8
    Codec ID : S_TEXT/UTF8
    Codec ID/Info : UTF-8 Plain Text
    Default : No
    Forced : No
    Text #7
    ID : 9
    Format : UTF-8
    Codec ID : S_TEXT/UTF8
    Codec ID/Info : UTF-8 Plain Text
    Default : No
    Forced : No
    Text #8
    ID : 10
    Format : UTF-8
    Codec ID : S_TEXT/UTF8
    Codec ID/Info : UTF-8 Plain Text
    Default : No
    Forced : No
    Text #9
    ID : 11
    Format : UTF-8
    Codec ID : S_TEXT/UTF8
    Codec ID/Info : UTF-8 Plain Text
    Default : No
    Forced : No
    Menu
    00:00:00.000 : :(01)00:00:00:000
    00:06:59.168 : :(02)00:06:59:168
    00:11:01.827 : :(03)00:11:01:827
    00:18:28.440 : :(04)00:18:28:440
    00:25:34.866 : :(05)00:25:34:866
    00:31:20.837 : :(06)00:31:20:837
    00:39:23.861 : :(07)00:39:23:861
    00:44:07.853 : :(08)00:44:07:853
    00:48:57.225 : :(09)00:48:57:225
    00:55:51.056 : :(10)00:55:51:056
    01:01:21.344 : :(11)01:01:21:344
    01:09:50.560 : :(12)01:09:50:561
    01:15:25.479 : :(13)01:15:25:479
    01:23:51.860 : :(14)01:23:51:860
    01:30:14.700 : :(15)01:30:14:700
    01:36:45.424 : :(16)01:36:45:424
    01:41:15.652 : :(17)01:41:15:652
    01:47:35.282 : :(18)01:47:35:282
    01:53:06.029 : :(19)01:53:06:029
    01:55:37.555 : :(20)01:55:37:555


You cannot post new topics in this forum
You cannot reply to topics in this forum
You cannot edit your posts in this forum
You cannot delete your posts in this forum
You cannot vote in polls in this forum
You cannot attach files in this forum
You cannot download files in this forum