Аватар / Avatar (2009) BDRip 1080p | 120 fps | Extended Collector's Cut | Experimental Мстители: Война бесконечности / Avengers: Infinity War (2018) BDRip 1080p | 120 fps Хан Соло: Звёздные войны. Истории / Solo: A Star Wars Story (2018) BDRip 1080p | Локализованная версия | 120 fps Трансформеры: Месть падших / Transformers: Revenge of the Fallen (2009) BDRip 1080p | IMAX Edition | 120 fps Чужой / Alien (1979) BDRip 1080p | Director's Cut | 120 fps Аватар / Avatar (2009) BDRip 720p | Extended Cut | 95 fps Мир Юрского периода 2 / Jurassic World: Fallen Kingdom (2018) BDRip 720p | 95 fps Чужие / Aliens (1986) BDRip 1080p | Special Edition | 120 fps
Статистика раздачи
Размер:  12,07 GB   |    Зарегистрирован:  27 дней   |    Скачан:  19 раз
Сидов:  1  [  0 KB/s  ]   Подробная статистика пиров
 
 
 
  1. Стаж:
    4 года 1 месяц
    Сообщений:
    2426
    Пол:
    Мужской
    «Жизнь нельзя остановить» Информация
    Название: Мир Юрского периода 2
    Оригинальное название: Jurassic World: Fallen Kingdom
    Год выхода: 2018
    Жанр: Фантастика, боевик, приключения
    Режиссер: Хуан Антонио Байона
    Сценарий: Дерек Коннолли, Колин Треворроу
    Продюсер: Белен Атьенса, Патрик Краули
    В ролях: Брайс Даллас Ховард, Крис Прэтт, Джефф Голдблюм, Тед Левайн, Джеймс Кромуэлл, Тоби Джонс, Б. Д. Вонг, Рейф Сполл, Даниэлла Пинеда, Джеральдин Чаплин

    Сюжет:
    На острове Исла-Нублар, где не так давно располагался парк развлечений с динозаврами, правит бал дикая природа. Но без людей все далеко не так спокойно, как могло бы показаться. Основатели парка приняли решение построить его, несмотря на активный вулкан, расположенный в сердце острова. Вулкан пробудился и рискует потопить остров в лаве. Управляющая парка Клэр Дэринг уговаривает дрессировщика Оуэна Грэди вернуться в бывший парк и спасти динозавров от неминуемой гибели.

    Страна: США
    Продолжительность: 02:08:17

    Файл
    Кодек: H.264
    Формат: MKV
    Качество: BDRip 720p | 95 fps
    Видео: 1280 x 534 (2.397) | 95.904 fps | 13.0 Мбит/сек
    Аудио: AC3 | 5.1 | 48 kHz | 448 kbps | 16 bit | Дубляж - Лицензия |

    MedifInfo

    Видео
    Идентификатор : 1
    Формат : AVC
    Формат/Информация : Advanced Video Codec
    Профиль формата : High@L4.1
    Настройки формата : CABAC / 4 Ref Frames
    Параметр CABAC формата : Да
    Параметр RefFrames формата : 4 кадра
    Идентификатор кодека : V_MPEG4/ISO/AVC
    Продолжительность : 2 ч. 8 м.
    Битрейт : 13,0 Мбит/сек
    Ширина : 1280 пикселей
    Высота : 534 пикселя
    Соотношение сторон : 2,40:1
    Режим частоты кадров : Постоянный
    Частота кадров : 95,904 (95904/1000) кадров/сек
    Цветовое пространство : YUV
    Субдискретизация насыщенности : 4:2:0
    Битовая глубина : 8 бит
    Тип развёртки : Прогрессивная
    Бит/(Пиксели*Кадры) : 0.198
    Размер потока : 11,6 Гбайт (97%)
    Библиотека кодирования : x264 core 152 r2851 ba24899
    Настройки программы : cabac=1 / ref=3 / deblock=1:-3:-3 / analyse=0x3:0x113 / me=hex / subme=8 / psy=1 / psy_rd=1.00:0.25 / mixed_ref=1 / me_range=16 / chroma_me=1 / trellis=1 / 8x8dct=1 / cqm=0 / deadzone=6,6 / fast_pskip=1 / chroma_qp_offset=-4 / threads=12 / lookahead_threads=2 / sliced_threads=0 / nr=0 / decimate=0 / interlaced=0 / bluray_compat=0 / constrained_intra=0 / bframes=3 / b_pyramid=2 / b_adapt=1 / b_bias=0 / direct=1 / weightb=1 / open_gop=0 / weightp=2 / keyint=959 / keyint_min=95 / scenecut=40 / intra_refresh=0 / rc_lookahead=40 / rc=2pass / mbtree=1 / bitrate=12999 / ratetol=1.0 / qcomp=0.80 / qpmin=0 / qpmax=69 / qpstep=4 / cplxblur=20.0 / qblur=0.5 / vbv_maxrate=62500 / vbv_bufsize=78125 / nal_hrd=none / filler=0 / ip_ratio=1.10 / aq=1:0.50
    Default : Да
    Forced : Нет
    Аудио
    Идентификатор : 2
    Формат : AC-3
    Формат/Информация : Audio Coding 3
    Идентификатор кодека : A_AC3
    Продолжительность : 2 ч. 8 м.
    Вид битрейта : Постоянный
    Битрейт : 448 Кбит/сек
    Каналы : 6 каналов
    Расположение каналов : Front: L C R, Side: L R, LFE
    Частота : 48,0 КГц
    Частота кадров : 31,250 кадров/сек (1536 SPF)
    Битовая глубина : 16 бит
    Метод сжатия : С потерями
    Размер потока : 411 Мбайт (3%)
    Заголовок : Дубляж - Лицензия
    ServiceKind/String : Complete Main
    Default : Да
    Forced : Нет
    Внимание.
    Фильм находится в запароленном архиве !!!
    За приобретением ключа к архиву , писать в личку автору .

    Мир Юрского периода 2 (2018) BDRip 720p_95 fps.rar.torrent
    Зарегистрирован 2018-10-24 08:54
    5C26CA6F68DA148900143DBB8645F21A5FF17190
    проверено
    19 раз
    1 [0 KB/s]
    0
    Похожие Темы
  2. Стаж:
    20 дней
    Сообщений:
    2
    Пол:
    Не указан
    Whats the unlock code for opening the car file of this torrent?
    01-Ноя-2018 05:09 (спустя 7 дней)
  3. Стаж:
    4 года 1 месяц
    Сообщений:
    2426
    Пол:
    Мужской
    10397Whats the unlock code for opening the car file of this torrent?
    https://60-fps.org/120fps.php
    01-Ноя-2018 07:32 (спустя 2 часа 23 минуты)
  4. Стаж:
    20 дней
    Сообщений:
    2
    Пол:
    Не указан
    10398
    10397Whats the unlock code for opening the car file of this torrent?
    https://60-fps.org/120fps.php
    But how do get the code to unlock the car file?
    02-Ноя-2018 02:31 (спустя 18 часов)
  5. Стаж:
    4 года 1 месяц
    Сообщений:
    2426
    Пол:
    Мужской
    оплатить и написать автору
    https://60-fps.org/120fps.php
    02-Ноя-2018 14:31 (спустя 12 часов)
  6. Стаж:
    3 года 1 месяц
    Сообщений:
    5
    Пол:
    Мужской
    Сообщение появится после проверки модератором
    14-Ноя-2018 09:05 (спустя 11 дней)


Вы не можете начинать темы
Вы не можете отвечать на сообщения
Вы не можете редактировать свои сообщения
Вы не можете удалять свои сообщения
Вы не можете голосовать в опросах
Вы не можете прикреплять файлы к сообщениям
Вы можете скачивать файлы