Властелин колец: Трилогия / The Lord of the Rings: Trilogy (2001-2003) BDRip-AVC | Extended Cut | 60 fps Пятый элемент / The Fifth Element (1997) BDRip 1080p | 60 fps Принц Персии: Пески времени / Prince of Persia: The Sands of Time (2010) BDRip 1080p | 60 fps Охота / The Hunt (2020) BDRip 1080p | 60 fps Фантастическая четверка : Дилогия / Fantastic Four: Dilogy (2005-2007) BDRip 1080p | 60 fps Агент Ева / Ava (2020) BDRip 1080p | 60 fps The Mortal Instruments: City of Bones / The Mortal Instruments: City of Bones (2013) BDRip 1080p | 60 fps Удивительное путешествие доктора Дулиттла / Dolittle (2020) BDRip 1080p | 60 fps
  1. Longevity:
    6 years 1 month
    Posts:
    2418
    Gender:
    Male
    «Здесь начинается жизнь» Информация
    Название: Мир Дикого запада / Западный мир
    Оригинальное название: Westworld
    Год выхода: 2016
    Жанр: фантастика, триллер, вестерн
    Режиссер: Ричард Дж. Льюис, Винченцо Натали
    Сценарий: Джина Этуотер, Эд Брубейкер
    Продюсер: Роберто Патино, Джей Джей Абрамс
    В ролях: Энтони Хопкинс, Эд Харрис, Эван Рэйчел Вуд, Джеймс Марсден, Тэнди Ньютон, Джеффри Райт, Тесса Томпсон, Джимми Симпсон, Родриго Санторо, Шеннон Мари Вудворд

    Сюжет:
    В футуристическом парке развлечений андроиды на фоне для исторических декораций становятся рабами людей, выполняя рутинные задания, пока в один момент сбой в программе не превращает их в опасных убийц.


    Список серий-01 серия - Обновление
    02 серия - Избитый сюжет
    03 серия - Бродяга
    04 серия - Теория Диссонанса
    05 серия - Контрапассо
    06 серия - Противник
    07 серия - Обман зрения
    08 серия - Угасание следа
    09 серия - Хорошо темперированный клавир
    10 серия - Бикамеральный разум
    Страна: США
    Продолжительность: 10 серий по ~ 01:08:00 серия

    Файл
    Кодек: H.264
    Формат: MKV
    Качество: BDRip 1080p | 60 fps
    Видео: 1920 x 1080 (1.778) | 59.940 fps | 30.0 Мбит/сек
    Аудио 01: AC3 | 5.1 | 48 kHz | 384 kbps | 16 bit | Профессиональный дублированный - Кравец по заказу Amedia |
    Аудио 02: AC3 | 5.1 | 48 kHz | 448 kbps | 16 bit | english |
    Субтитры: Русские, английские

    MedifInfo

    Видео
    Идентификатор : 1
    Формат : AVC
    Формат/Информация : Advanced Video Codec
    Профиль формата : High@L4.2
    Параметр CABAC формата : Да
    Параметр ReFrames формата : 3 кадра
    Идентификатор кодека : V_MPEG4/ISO/AVC
    Продолжительность : 1 ч. 8 м.
    Вид битрейта : Переменный
    Битрейт : 28,8 Мбит/сек
    Максимальный битрейт : 30,0 Мбит/сек
    Ширина : 1920 пикселей
    Высота : 1080 пикселей
    Соотношение сторон : 16:9
    Режим частоты кадров : Постоянный
    Частота кадров : 59,880 кадров/сек
    Частота кадров в оригинале : 59,940 кадров/сек
    Стандарт вещания : PAL
    Цветовое пространство : YUV
    Субдискретизация насыщенности : 4:2:0
    Битовая глубина : 8 бит
    Тип развёртки : Прогрессивная
    Бит/(Пиксели*Кадры) : 0.232
    Размер потока : 13,7 Гбайт (95%)
    Заголовок : www.60-fps.org
    Язык : English
    Default : Да
    Forced : Нет
    Основные цвета : BT.709
    Характеристики трансфера : BT.709
    Коэффициенты матрицы : BT.709
    colour_range : Limited
    Аудио #1
    Идентификатор : 2
    Формат : AC-3
    Формат/Информация : Audio Coding 3
    Расширение режима : CM (complete main)
    Параметр Endianness формата : Big
    Идентификатор кодека : A_AC3
    Продолжительность : 1 ч. 8 м.
    Вид битрейта : Постоянный
    Битрейт : 384 Кбит/сек
    Каналы : 6 каналов
    Расположение каналов : Front: L C R, Side: L R, LFE
    Частота : 48,0 КГц
    Битовая глубина : 16 бит
    Метод сжатия : С потерями
    Размер потока : 187 Мбайт (1%)
    Заголовок : Кравец по заказу Amedia
    Язык : Russian
    Default : Да
    Forced : Нет
    Аудио #2
    Идентификатор : 3
    Формат : AC-3
    Формат/Информация : Audio Coding 3
    Расширение режима : CM (complete main)
    Параметр Endianness формата : Big
    Идентификатор кодека : A_AC3
    Продолжительность : 1 ч. 8 м.
    Вид битрейта : Постоянный
    Битрейт : 448 Кбит/сек
    Каналы : 6 каналов
    Расположение каналов : Front: L C R, Side: L R, LFE
    Частота : 48,0 КГц
    Битовая глубина : 16 бит
    Метод сжатия : С потерями
    Размер потока : 218 Мбайт (1%)
    Заголовок : english
    Язык : English
    Default : Нет
    Forced : Нет
    DURATION : 01:04:55.683000000
    NUMBER_OF_FRAMES : 746
    NUMBER_OF_BYTES : 24872
    _STATISTICS_WRITING_APP : mkvmerge v7.6.0 ('Garden of Dreams') 32bit built on Feb 8 2015 12:51:39
    _STATISTICS_WRITING_DATE_UTC : 2018-04-25 21:31:38
    _STATISTICS_TAGS : BPS DURATION NUMBER_OF_FRAMES NUMBER_OF_BYTES
    Текст #1
    Идентификатор : 4
    Формат : UTF-8
    Идентификатор кодека : S_TEXT/UTF8
    Идентификатор кодека/Информация : UTF-8 Plain Text
    Заголовок : Amedia
    Язык : Russian
    Default : Нет
    Forced : Нет
    Текст #2
    Идентификатор : 5
    Формат : UTF-8
    Идентификатор кодека : S_TEXT/UTF8
    Идентификатор кодека/Информация : UTF-8 Plain Text
    Язык : English
    Default : Нет
    Forced : Нет
    Меню
    00:00:00.000 : en:00:00:00.000
    00:01:47.607 : en:00:01:47.607
    00:14:14.896 : en:00:14:14.896
    00:22:41.235 : en:00:22:41.235
    00:33:14.451 : en:00:33:14.451
    00:43:01.370 : en:00:43:01.370
    00:54:44.781 : en:00:54:44.781
    01:06:51.257 : en:01:06:51.257

    Release was prepared by 60 - fps



    Last edited by Kryl on 2018-08-03 17:49; edited 22 times in total
  2. Longevity:
    4 years 3 months
    Posts:
    1559
    Gender:
    Male
    А мне понравилось,я бы посмотрел продолжение... !
    27-Apr-2018 01:12 (after 1 day 4 hours)
  3. Longevity:
    2 years 9 months
    Posts:
    1
    Gender:
    Unknown
    Этот сериал единственный который я с удовольствием смотрел в прошлом году.
    27-Apr-2018 14:05 (after 12 hours)
  4. Longevity:
    4 years 1 month
    Posts:
    25
    Gender:
    Unknown
    забираю и жду продолжения
    останусь на раздаче
    28-Apr-2018 12:34 (after 22 hours)
  5. Longevity:
    4 years 3 months
    Posts:
    1559
    Gender:
    Male
    9662забираю и жду продолжения
    останусь на раздаче
    +++
    29-Apr-2018 09:28 (after 20 hours)
  6. Longevity:
    3 years 7 months
    Posts:
    2
    Gender:
    Male
    Отлично, можно пересмотреть пока не вышел полностью 2 сезон. Качаю и остаюсь на раздаче
    01-May-2018 14:45 (after 2 days 5 hours)
  7. Longevity:
    2 years 7 months
    Posts:
    3
    Gender:
    Male
    9654А мне понравилось,я бы посмотрел продолжение... !
    аналгично
    08-May-2018 19:12 (after 7 days)
  8. Longevity:
    2 years 7 months
    Posts:
    3
    Gender:
    Male
    9723
    9654А мне понравилось,я бы посмотрел продолжение... !
    аналгично
    Спасибо, что подсказали этот сайт на Мегашаре, я искал "эротику", но нашел большее.
    09-May-2018 05:48 (after 10 hours)
  9. Longevity:
    2 years 7 months
    Posts:
    3
    Gender:
    Male
    Сериал роскошный, очень вкусный. еще раз спасибо раздающим.
    24-May-2018 07:16 (after 15 days)
  10. Longevity:
    4 years 1 month
    Posts:
    25
    Gender:
    Unknown
    Ништяк. Первый сезон готов.
    Второй будет?
    15-Jul-2018 12:14 (after 1 month 22 days)
  11. Longevity:
    6 years 1 month
    Posts:
    2418
    Gender:
    Male
    9981Ништяк. Первый сезон готов.
    Второй будет?
    неизвестно , скорей всего , на платной основе ...
    15-Jul-2018 13:42 (after 1 hour 27 minutes)
  12. Longevity:
    2 years 9 months
    Posts:
    4
    Gender:
    Unknown
    10 серий это весь первый сезон?
    03-Aug-2018 16:25 (after 19 days)
  13. Longevity:
    2 years 3 months
    Posts:
    1
    Gender:
    Unknown
    thanks for this
    04-Aug-2018 12:13 (after 19 hours)
  14. Longevity:
    2 years
    Posts:
    3
    Gender:
    Unknown
    Спасибо, качество супер! Почему никто не выложит 2 сезон в 60 FPS?
    24-Mar-2019 20:04 (after 7 months 20 days)
  15. Longevity:
    4 years 3 months
    Posts:
    1559
    Gender:
    Male
    10691Спасибо, качество супер! Почему никто не выложит 2 сезон в 60 FPS?
    Очень энергозатратно делать второй сезон,по этому не делаем...
    Могу сделать только на платной основе за 300руб. или 10$(PayPal)
    05-Jun-2019 23:46 (after 2 months 12 days)


You cannot post new topics in this forum
You cannot reply to topics in this forum
You cannot edit your posts in this forum
You cannot delete your posts in this forum
You cannot vote in polls in this forum
You cannot attach files in this forum
You cannot download files in this forum