1. Longevity:
    7 years
    Posts:
    2413
    Gender:
    Male
    -Miley Cyrus - Malibu (2017) Master | ProRes --Информация о Клипе
    Исполнитель: Miley Cyrus
    Название: Malibu
    Год выхода: 2017
    Продолжительность: 00:03:51-Описание:
    «Malibu» — песня, записанная американской певицей Майли Сайрус для её грядущего шестого студийного альбома. Выпущена 11 мая 2017 года лейблом RCA Records как лид-сингл.-Файл
    Кодек: APCH
    Контейнер: MOV
    Формат: ProRes
    Качество: Master
    Видео: 1920 x 1080 (1.778) | 23.976 fps | 162 Мбит/сек
    Аудио: PCM | 1536 Кбит/сек | 2.0 канала, 48.0 КГц

    MI

    Формат : MPEG-4
    Профиль формата : QuickTime
    Идентификатор кодека : qt
    Размер файла : 4,40 Гбайт
    Продолжительность : 3 м. 51 с.
    Режим общего битрейта : Переменный
    Общий поток : 163 Мбит/сек
    Дата кодирования : UTC 2017-06-21 18:40:12
    Дата пометки : UTC 2017-06-21 18:44:36
    Библиотека кодирования : Apple QuickTime 7.7.5
    com.apple.quicktime.player.movie.audio.m : (Binary)
    Видео
    Идентификатор : 1
    Формат : ProRes
    Версия формата : Version 0
    Идентификатор кодека : apcn
    Продолжительность : 3 м. 51 с.
    Вид битрейта : Переменный
    Битрейт : 162 Мбит/сек
    Ширина : 1920 пикселей
    Высота : 1080 пикселей
    Соотношение сторон : 16:9
    Режим частоты кадров : Постоянный
    Частота кадров : 23,976 кадра/сек
    Цветовое пространство : YUV
    Субдискретизация насыщенности : 4:2:2
    Тип развёртки : Прогрессивная
    Бит/(Пиксели*Кадры) : 3.255
    Размер потока : 4,36 Гбайт (99%)
    Заголовок : Ж»№ыКУЖµГЅМ崦АніМРт / Apple МжЙнКэѕЭґ¦АніМРт
    Библиотека кодирования : fmpg
    Язык : English
    Дата пометки : UTC 2017-06-21 18:44:36
    Коэффициенты матрицы : BT.601
    Аудио
    Идентификатор : 2
    Формат : PCM
    Параметр Endianness формата : Little
    Параметр Sign формата : Signed
    Идентификатор кодека : sowt
    Продолжительность : 3 м. 51 с.
    Вид битрейта : Постоянный
    Битрейт : 1536 Кбит/сек
    Каналы : 2 канала
    Расположение каналов : Front: L R
    Частота : 48,0 КГц
    Битовая глубина : 16 бит
    Размер потока : 42,4 Мбайт (1%)
    Заголовок : Ж»№ыЙщЖµГЅМ崦АніМРт / Apple МжЙнКэѕЭґ¦АніМРт
    Язык : English
    Дата пометки : UTC 2017-06-21 18:44:36

    Release was prepared by 60-fps.org

  2. Longevity:
    4 years 10 months
    Posts:
    5
    Gender:
    Unknown
    reseed please
    26-Oct-2017 06:51 (after 3 months 17 days)


You cannot post new topics in this forum
You cannot reply to topics in this forum
You cannot edit your posts in this forum
You cannot delete your posts in this forum
You cannot vote in polls in this forum
You cannot attach files in this forum
You cannot download files in this forum