Sheri Vi Tantalizes Nikolas With Her Oral Skills (2015) HD 1080p | 60 fps Gorgeous Young Girlfriends Try Anal Together (2016) HD 1080p | 60 fps Blonde slut Daniella Margot in rough double penetration fucking (2016) Full HD 1080p | 60 fps Cecilia & Clover - New Game (2016) HD 1080p | 60 fps Anita Bellini - Doubled Up (2015) HD 1080p | 60 fps Preppy Girl Threesome Get Three BBCs (2016) HD 1080p | 60 fps Study Buddies (2016) HD 1080p | 60 fps Christmas with Nancy A (2016) Full HD 1080p | 60 fps
  1. Longevity:
    5 years 9 months
    Posts:
    283
    Gender:
    Male
    Mila Blaze - NeighborAffair 19907 / 14.07.15 (2015) HD 1080p | 60 fps

    Информация:
    Модель/Название: Mila Blaze - 19907 / 14.07.15
    Производство: NeighborAffair.com / NaughtyAmerica.com
    Год выпуска: 14.07.15 г.
    Продолжительность: 00:21:51

    Файл:
    Формат видео: MKV
    Качество видео: HD 1080p | 60 fps
    Видео кодек: H.264
    Аудио кодек: AC3
    Видео: 1920x1008 | 60,000 fps | 18,0 Мбит/сек
    Аудио: AC3 | 2 channels | 48 kHz | 384 Кбит/сек

    Автор Рипа:

    MediaInfo

    Видео
    Идентификатор : 1
    Формат : AVC
    Формат/Информация : Advanced Video Codec
    Профиль формата : High@L4.1
    Параметр CABAC формата : Да
    Параметр ReFrames формата : 4 кадра
    Идентификатор кодека : V_MPEG4/ISO/AVC
    Продолжительность : 21 м.
    Битрейт : 18,0 Мбит/сек
    Ширина : 1920 пикселей
    Высота : 1008 пикселей
    Соотношение сторон : 1,905
    Режим частоты кадров : Постоянный
    Частота кадров : 60,000 кадров/сек
    Цветовое пространство : YUV
    Субдискретизация насыщенности : 4:2:0
    Битовая глубина : 8 бит
    Тип развёртки : Прогрессивная
    Бит/(Пиксели*Кадры) : 0.155
    Размер потока : 2,70 Гбайт (96%)
    Заголовок : Mila Blaze - NeighborAffair « R.G 60-FPS Rip By Kamikkadze »
    Библиотека кодирования : x264 core 146 r2538 121396c
    Настройки программы : cabac=1 / ref=4 / deblock=1:-2:-1 / analyse=0x3:0x113 / me=umh / subme=9 / psy=1 / psy_rd=1.00:0.20 / mixed_ref=1 / me_range=24 / chroma_me=1 / trellis=2 / 8x8dct=1 / cqm=0 / deadzone=21,11 / fast_pskip=0 / chroma_qp_offset=-3 / threads=6 / lookahead_threads=1 / sliced_threads=0 / nr=0 / decimate=1 / interlaced=0 / bluray_compat=0 / constrained_intra=0 / bframes=4 / b_pyramid=2 / b_adapt=2 / b_bias=0 / direct=1 / weightb=1 / open_gop=0 / weightp=2 / keyint=250 / keyint_min=25 / scenecut=40 / intra_refresh=0 / rc_lookahead=40 / rc=abr / mbtree=0 / bitrate=17999 / ratetol=1.0 / qcomp=0.60 / qpmin=0 / qpmax=69 / qpstep=4 / vbv_maxrate=50000 / vbv_bufsize=62500 / nal_hrd=none / filler=0 / ip_ratio=1.40 / pb_ratio=1.30 / aq=1:1.00
    Default : Да
    Forced : Нет
    Аудио
    Идентификатор : 2
    Формат : AC-3
    Формат/Информация : Audio Coding 3
    Расширение режима : CM (complete main)
    Параметр Endianness формата : Big
    Идентификатор кодека : A_AC3
    Продолжительность : 21 м.
    Вид битрейта : Постоянный
    Битрейт : 384 Кбит/сек
    Каналы : 2 канала
    Расположение каналов : Front: L R
    Частота : 48,0 КГц
    Метод сжатия : С потерями
    Размер потока : 60,3 Мбайт (2%)
    Default : Да
    Forced : Нет
    Просьба к переливающим на другие сайты, в оформлении указывайте пожалуйста авторство рипа - Kamikkadze

    Release was prepared by 60 - fps

  2. Longevity:
    5 years
    Posts:
    1
    Gender:
    Male
    Они весь ролик одетые были? Или это скрины так сделали, для школьников
    31-Oct-2015 01:05 (after 9 days)
  3. Longevity:
    6 years
    Posts:
    2419
    Gender:
    Male
    4225Они весь ролик одетые были? Или это скрины так сделали, для школьников
    Для школьников :ab:
    31-Oct-2015 09:31 (after 8 hours)
  4. Longevity:
    5 years 9 months
    Posts:
    283
    Gender:
    Male
    Они весь ролик одетые были? Или это скрины так сделали, для школьников
    Да они весь ролик просто общаются,обсуждают одежду и т.п))) а если серьёзно то скрины начала клипа.
    31-Oct-2015 19:46 (after 10 hours)
  5. Longevity:
    4 years
    Posts:
    25
    Gender:
    Unknown
    Сообщение появится после проверки модератором
    17-Oct-2017 12:18 (after 1 year 11 months)


You cannot post new topics in this forum
You cannot reply to topics in this forum
You cannot edit your posts in this forum
You cannot delete your posts in this forum
You cannot vote in polls in this forum
You cannot attach files in this forum
You cannot download files in this forum