[Цитировать]
Kryl

-Michael Jackson - Smooth Criminal (2010) BDRip 1080p | 60 fps- Информация о Клипе
Исполнитель: Michael Jackson
Название: Smooth Criminal
Год выхода: 2010
Продолжительность: 00:11:37-Файл
Кодек: MPEG4/ISO/AVC/ H.264
Формат: MKV
Качество: MasterRip 1080p
Видео: 1920 x 1080 (1.778) at 59.880 fps 24.5 Мбит/сек
Аудио: AC-3 | 640 Кбит/сек | 48.0 KHz | 6 channels

MI

Видео
Идентификатор : 1
Формат : AVC
Формат/Информация : Advanced Video Codec
Профиль формата : Main@L4.2
Параметр CABAC формата : Да
Параметр ReFrames формата : 3 кадра
Идентификатор кодека : V_MPEG4/ISO/AVC
Продолжительность : 9 м. 58 с.
Битрейт : 24,5 Мбит/сек
Ширина : 1920 пикселей
Высота : 1080 пикселей
Соотношение сторон : 16:9
Режим частоты кадров : Постоянный
Частота кадров : 59,880 кадров/сек
Частота кадров в оригинале : 59,940 кадров/сек
Стандарт вещания : NTSC
Цветовое пространство : YUV
Субдискретизация насыщенности : 4:2:0
Битовая глубина : 8 бит
Тип развёртки : Прогрессивная
Бит/(Пиксели*Кадры) : 0.198
Размер потока : 1,71 Гбайт (96%)
Заголовок : www.60-fps.org
Язык : English
Default : Да
Forced : Нет
Основные цвета : BT.709
Характеристики трансфера : BT.709
Коэффициенты матрицы : BT.709
colour_range : Limited
Аудио
Идентификатор : 2
Формат : AC-3
Формат/Информация : Audio Coding 3
Расширение режима : CM (complete main)
Параметр Endianness формата : Big
Идентификатор кодека : A_AC3
Продолжительность : 9 м. 58 с.
Вид битрейта : Постоянный
Битрейт : 640 Кбит/сек
Каналы : 6 каналов
Расположение каналов : Front: L C R, Side: L R, LFE
Частота : 48,0 КГц
Битовая глубина : 16 бит
Метод сжатия : С потерями
Задержка видео : 15 мс.
Размер потока : 45,7 Мбайт (2%)
Заголовок : www.60-fps.org
Default : Да
Forced : Нет

Релиз подготовлен 60 - fps

 
Показать сообщения:    

Текущее время: 11-Дек 07:08

Часовой пояс: UTC + 3


Вы не можете начинать темы
Вы не можете отвечать на сообщения
Вы не можете редактировать свои сообщения
Вы не можете удалять свои сообщения
Вы не можете голосовать в опросах
Вы не можете прикреплять файлы к сообщениям
Вы не можете скачивать файлы