Стражи Галактики. Часть 2 / Guardians of the Galaxy Vol. 2 (2017) BDRip 1080p | 60 fps Первому игроку приготовиться / Ready Player One (2018) BDRip 1080p | 60 fps Дэдпул / Deadpool (2016) BDRip 1080p | 60 fps Аватар / Avatar (2009) BDRip 1080p | 60 fps Рэмпейдж / Rampage (2018) BDRip 1080p | 60 fps Доктор Стрэндж / Doctor Strange (2016) BDRip 1080p | 60 fps Гарри Поттер: Коллекция / Harry Potter: Collection (2001-2011) BDRip-AVC | 60 fps Валериан и город тысячи планет / Valerian and the City of a Thousand Planets (2017) BDRip 1080p | 60 fps
  1. bot

    Стаж:
    3 года 11 месяцев
    Сообщений:
    420
    Пол:
    Не указан
    «Fear Changes Everything»- Информация
    Название: Мгла
    Оригинальное название: The Mist
    Год выхода: 2007
    Жанр: ужасы, фантастика, триллер
    Режиссер: Фрэнк Дарабонт
    Сценарий: Фрэнк Дарабонт, Стивен Кинг
    Продюсер: Чарльз Ровен, Дебора Снайдер, Закария Алауи
    В ролях: Томас Джейн, Джей Амор, Кевин Бирд, Андре Брогер, Грегг Браззел, Доди Браун, Тейлор Е. Браун, Хулио Седилльо, Дерек Кокс-Берг, Кип Каммингс
    --Сюжет:
    Маленький городок накрывает сверхъестественный туман, отрезая людей от внешнего мира. Группе героев, оказавшихся в этот момент в супермаркете, приходится вступить в неравный бой с обитающими в тумане монстрами.- Страна: США
    Продолжительность: 02:05:59

    Файл
    Кодек: MPEG4/ISO/AVC H.264
    Формат: MKV
    Качество: BDRip 1080p | 60 fps
    Видео: 1920x1040 | 59.940 fps | 12.7 Мбит/сек
    Аудио 1: AC3 | 5.1 | 48 kHz | 384 kbps | 16 bit | Дубляж |
    Аудио 2: AC3 | 5.1 | 48 kHz | 384 kbps | 16 bit | Многоголосный, закадровый - Киномания |
    Аудио 3: AC3 | 5.1 | 48 kHz | 384 kbps | 16 bit | Многоголосный, закадровый - Кравец |
    Аудио 4: AC3 | 5.1 | 48 kHz | 640 kbps | 16 bit | ENG |
    Аудио 5: DTS | 5.1 | 48 kHz | 775 kbps | 24 bit | Многоголосый, закадровый |
    Субтитры: Ru, Eng

    MedifInfo

    Video
    ID : 1
    Format : AVC
    Format/Info : Advanced Video Codec
    Format profile : High@L4.1
    Format settings, CABAC : Yes
    Format settings, ReFrames : 4 frames
    Codec ID : V_MPEG4/ISO/AVC
    Duration : 2h 5mn
    Bit rate : 12.7 Mbps
    Width : 1 920 pixels
    Height : 1 040 pixels
    Display aspect ratio : 16:9
    Frame rate : 59.940 fps
    Color space : YUV
    Chroma subsampling : 4:2:0
    Bit depth : 8 bits
    Scan type : Progressive
    Bits/(Pixel*Frame) : 0.107
    Stream size : 11.2 GiB (82%)
    Writing library : x264 core 133 r2334 a3ac64b
    Encoding settings : cabac=1 / ref=4 / deblock=1:-1:-1 / analyse=0x3:0 / me=umh / subme=9 / psy=1 / psy_rd=1.00:0.10 / mixed_ref=1 / me_range=42 / chroma_me=0 / trellis=2 / 8x8dct=1 / cqm=0 / deadzone=21,11 / fast_pskip=0 / chroma_qp_offset=-3 / threads=12 / lookahead_threads=1 / sliced_threads=0 / nr=0 / decimate=0 / interlaced=0 / bluray_compat=0 / constrained_intra=0 / bframes=5 / b_pyramid=2 / b_adapt=2 / b_bias=0 / direct=1 / weightb=1 / open_gop=0 / weightp=2 / keyint=594 / keyint_min=59 / scenecut=40 / intra_refresh=0 / rc=crf / mbtree=0 / crf=16.0 / qcomp=0.60 / qpmin=0 / qpmax=69 / qpstep=4 / ip_ratio=1.40 / pb_ratio=1.30 / aq=0
    Language : English
    Default : Yes
    Forced : No
    Audio #1
    ID : 2
    Format : AC-3
    Format/Info : Audio Coding 3
    Mode extension : CM (complete main)
    Codec ID : A_AC3
    Duration : 2h 5mn
    Bit rate mode : Constant
    Bit rate : 384 Kbps
    Channel(s) : 6 channels
    Channel positions : Front: L C R, Side: L R, LFE
    Sampling rate : 48.0 KHz
    Bit depth : 16 bits
    Compression mode : Lossy
    Delay relative to video : 1s 0ms
    Stream size : 346 MiB (2%)
    Title : Дубляж "Исправленный"
    Language : Russian
    Default : Yes
    Forced : No
    Audio #2
    ID : 3
    Format : AC-3
    Format/Info : Audio Coding 3
    Mode extension : CM (complete main)
    Codec ID : A_AC3
    Duration : 2h 5mn
    Bit rate mode : Constant
    Bit rate : 384 Kbps
    Channel(s) : 6 channels
    Channel positions : Front: L C R, Side: L R, LFE
    Sampling rate : 48.0 KHz
    Bit depth : 16 bits
    Compression mode : Lossy
    Stream size : 346 MiB (2%)
    Title : Многоголосный, закадровый Киномания
    Language : Russian
    Default : No
    Forced : No
    Audio #3
    ID : 4
    Format : AC-3
    Format/Info : Audio Coding 3
    Mode extension : CM (complete main)
    Codec ID : A_AC3
    Duration : 2h 5mn
    Bit rate mode : Constant
    Bit rate : 384 Kbps
    Channel(s) : 6 channels
    Channel positions : Front: L C R, Side: L R, LFE
    Sampling rate : 48.0 KHz
    Bit depth : 16 bits
    Compression mode : Lossy
    Stream size : 346 MiB (2%)
    Title : Многоголосный, закадровый Кравец
    Language : Russian
    Default : No
    Forced : No
    Audio #4
    ID : 7
    Format : AC-3
    Format/Info : Audio Coding 3
    Mode extension : CM (complete main)
    Codec ID : A_AC3
    Duration : 2h 5mn
    Bit rate mode : Constant
    Bit rate : 640 Kbps
    Channel(s) : 6 channels
    Channel positions : Front: L C R, Side: L R, LFE
    Sampling rate : 48.0 KHz
    Bit depth : 16 bits
    Compression mode : Lossy
    Stream size : 577 MiB (4%)
    Title : Оригинал
    Language : English
    Default : No
    Forced : No
    Audio #5
    ID : 8
    Format : DTS
    Format/Info : Digital Theater Systems
    Codec ID : A_DTS
    Duration : 2h 5mn
    Bit rate mode : Constant
    Bit rate : 755 Kbps
    Channel(s) : 6 channels
    Channel positions : Front: L C R, Side: L R, LFE
    Sampling rate : 48.0 KHz
    Bit depth : 24 bits
    Compression mode : Lossy
    Delay relative to video : 870ms
    Stream size : 680 MiB (5%)
    Title : Дубляж
    Language : Russian
    Default : No
    Forced : No
    Text #1
    ID : 5
    Format : UTF-8
    Codec ID : S_TEXT/UTF8
    Codec ID/Info : UTF-8 Plain Text
    Title : Полные
    Language : Russian
    Default : No
    Forced : No
    Text #2
    ID : 6
    Format : UTF-8
    Codec ID : S_TEXT/UTF8
    Codec ID/Info : UTF-8 Plain Text
    Title : Полные
    Language : English
    Default : No
    Forced : No
    Menu
    00:00:00.000 : en: The Storm
    00:06:02.654 : en: Something in the Mist
    00:17:34.428 : en: Weird Noises in the Dark
    00:22:14.583 : en: Norm's Demise
    00:28:42.220 : en: The Price of Disbelief
    00:31:46.571 : en: All we Saw Were Tentacles
    00:38:59.087 : en: The End of Days
    00:41:40.957 : en: No Defense Against the Will of God
    00:47:43.527 : en: It's Definetely Not Supernatural
    00:54:28.432 : en: They Came Out of the Smoke; Locusts Upon the Earth
    01:05:58.580 : en: Faith in Humanity
    01:17:13.212 : en: Trip to the Pharmacy
    01:25:25.495 : en: Expiation
    01:29:20.730 : en: The Arrowhead Project
    01:35:28.723 : en: Escape From the Market
    01:41:05.685 : en: Encounters in the Mist
    01:44:07.491 : en: Hopelessness
    01:57:23.787 : en: End Credits
  2. Стаж:
    6 месяцев 2 дня
    Сообщений:
    3
    Пол:
    Не указан
    Сообщение появится после проверки модератором


Вы не можете начинать темы
Вы не можете отвечать на сообщения
Вы не можете редактировать свои сообщения
Вы не можете удалять свои сообщения
Вы не можете голосовать в опросах
Вы не можете прикреплять файлы к сообщениям
Вы не можете скачивать файлы