[Цитировать]
Kryl

«In their hands, a deck of cards was the only thing more dangerous than a gun»- Информация
Название: Мэверик
Оригинальное название: Maverick
Год выхода: 1994
Жанр: боевик, триллер, комедия, приключения, вестерн
Режиссер: Ричард Доннер
Сценарий: Рой Хаггинс, Уильям Голдмен
Продюсер: Брюс Дэвей, Ричард Доннер, Александр Б. Коллетт
В ролях: Мэл Гибсон, Джоди Фостер, Джеймс Гарнер, Грэм Грин, Альфред Молина, Джеймс Коберн, Даб Тейлор, Джеффри Льюис, Пол Л. Смит, Дэн Хедайя
--Сюжет:
История о великолепном картежнике, игроке в покер и, конечно, обаятельном мошеннике Брэте Маверике. О том, как он самоотверженно «зарабатывает» деньги для участия в чемпионате по игре в покер. Но не только он собирается принять участие в «великом мошенничестве» — туда же стремится и обаятельная воровка Аннабел. Много приключений выпадет на их долю, пока им удастся набрать по 25 тысяч долларов, а именно такая сумма необходима для участия в игре….- Страна: США
Продолжительность: 02:06:36

Файл
Кодек: MPEG4/ISO/AVC H.264
Формат: MKV
Качество: BDRip 720p | 60 fps
Видео: 1280 x 534 (2.397) | 59.940 fps | 8.0 Мбит/сек
Аудио 1: AC3 | 2.0 | 48 kHz | 192 kbps | 16 bit | Дубляж ( Мост-Видео ) |
Аудио 2: AC3 | 2.0 | 48 kHz | 192 kbps | 16 bit | Дубляж ( Варус-Видео ) |
Аудио 3: AC3 | 2.0 | 48 kHz | 192 kbps | 16 bit | Многоголосый закадровый ( НТВ ) |
Аудио 4: AC3 | 2.0 | 48 kHz | 192 kbps | 16 bit | Многоголосый закадровый ( Россия ) |
Аудио 5: AC3 | 2.0 | 48 kHz | 640 kbps | 16 bit | Одноголосый закадровый ( Ю.Сербин ) |
Аудио 6: AC3 | 2.0 | 48 kHz | 640 kbps | 16 bit | Одноголосый закадровый ( А.Гаврилов ) |
Аудио 7: AC3 | 2.0 | 48 kHz | 640 kbps | 16 bit | Одноголосый закадровый ( В.Горчаков ) |
Аудио 7: AC3 | 2.0 | 48 kHz | 640 kbps | 16 bit | Одноголосый закадровый ( Ю.Живов ) |
Аудио 8: AC3 | 2.0 | 48 kHz | 640 kbps | 16 bit | ENG |
Субтитры: Russian, English

MedifInfo

Видео
Идентификатор : 1
Формат : AVC
Формат/Информация : Advanced Video Codec
Профиль формата : High@L4.1
Параметр CABAC формата : Да
Параметр ReFrames формата : 3 кадра
Идентификатор кодека : V_MPEG4/ISO/AVC
Продолжительность : 2 ч. 6 м.
Вид битрейта : Переменный
Битрейт : 7744 Кбит/сек
Максимальный битрейт : 8000 Кбит/сек
Ширина : 1280 пикселей
Высота : 534 пикселя
Соотношение сторон : 2,40:1
Режим частоты кадров : Постоянный
Частота кадров : 59,880 кадров/сек
Частота кадров в оригинале : 59,940 кадров/сек
Стандарт вещания : PAL
Цветовое пространство : YUV
Субдискретизация насыщенности : 4:2:0
Битовая глубина : 8 бит
Тип развёртки : Прогрессивная
Бит/(Пиксели*Кадры) : 0.189
Размер потока : 6,85 Гбайт (65%)
Заголовок : www.60-fps.org
Язык : English
Default : Да
Forced : Нет
Основные цвета : BT.601 NTSC
Характеристики трансфера : BT.601
Коэффициенты матрицы : BT.601
colour_range : Limited
Аудио #1
Идентификатор : 2
Формат : AC-3
Формат/Информация : Audio Coding 3
Расширение режима : CM (complete main)
Параметр Endianness формата : Big
Идентификатор кодека : A_AC3
Продолжительность : 2 ч. 6 м.
Вид битрейта : Постоянный
Битрейт : 192 Кбит/сек
Каналы : 2 канала
Расположение каналов : Front: L R
Частота : 48,0 КГц
Битовая глубина : 16 бит
Метод сжатия : С потерями
Размер потока : 174 Мбайт (2%)
Заголовок : AC3 2.0 @ 192 kbps - Дубляж, Мост-Видео
Язык : Russian
Default : Да
Forced : Нет
Аудио #2
Идентификатор : 3
Формат : AC-3
Формат/Информация : Audio Coding 3
Расширение режима : CM (complete main)
Параметр Endianness формата : Big
Идентификатор кодека : A_AC3
Продолжительность : 2 ч. 6 м.
Вид битрейта : Постоянный
Битрейт : 192 Кбит/сек
Каналы : 2 канала
Расположение каналов : Front: L R
Частота : 48,0 КГц
Битовая глубина : 16 бит
Метод сжатия : С потерями
Размер потока : 174 Мбайт (2%)
Заголовок : AC3 2.0 @ 192 kbps - Дубляж, Варус-Видео
Язык : Russian
Default : Нет
Forced : Нет
Аудио #3
Идентификатор : 4
Формат : AC-3
Формат/Информация : Audio Coding 3
Расширение режима : CM (complete main)
Параметр Endianness формата : Big
Идентификатор кодека : A_AC3
Продолжительность : 2 ч. 6 м.
Вид битрейта : Постоянный
Битрейт : 192 Кбит/сек
Каналы : 2 канала
Расположение каналов : Front: L R
Частота : 48,0 КГц
Битовая глубина : 16 бит
Метод сжатия : С потерями
Размер потока : 174 Мбайт (2%)
Заголовок : AC3 2.0 @ 192 kbps - Многоголосый закадровый, НТВ
Язык : Russian
Default : Нет
Forced : Нет
Аудио #4
Идентификатор : 5
Формат : AC-3
Формат/Информация : Audio Coding 3
Расширение режима : CM (complete main)
Параметр Endianness формата : Big
Идентификатор кодека : A_AC3
Продолжительность : 2 ч. 6 м.
Вид битрейта : Постоянный
Битрейт : 192 Кбит/сек
Каналы : 2 канала
Расположение каналов : Front: L R
Частота : 48,0 КГц
Битовая глубина : 16 бит
Метод сжатия : С потерями
Размер потока : 174 Мбайт (2%)
Заголовок : AC3 2.0 @ 192 kbps - Многоголосый закадровый, Россия
Язык : Russian
Default : Нет
Forced : Нет
Аудио #5
Идентификатор : 6
Формат : AC-3
Формат/Информация : Audio Coding 3
Расширение режима : CM (complete main)
Параметр Endianness формата : Big
Идентификатор кодека : A_AC3
Продолжительность : 2 ч. 6 м.
Вид битрейта : Постоянный
Битрейт : 640 Кбит/сек
Каналы : 2 канала
Расположение каналов : Front: L R
Частота : 48,0 КГц
Битовая глубина : 16 бит
Метод сжатия : С потерями
Размер потока : 580 Мбайт (5%)
Заголовок : AC3 2.0 @ 640 kbps - Одноголосый закадровый, Ю.Сербин
Язык : Russian
Default : Нет
Forced : Нет
Аудио #6
Идентификатор : 7
Формат : AC-3
Формат/Информация : Audio Coding 3
Расширение режима : CM (complete main)
Параметр Endianness формата : Big
Идентификатор кодека : A_AC3
Продолжительность : 2 ч. 6 м.
Вид битрейта : Постоянный
Битрейт : 640 Кбит/сек
Каналы : 2 канала
Расположение каналов : Front: L R
Частота : 48,0 КГц
Битовая глубина : 16 бит
Метод сжатия : С потерями
Размер потока : 580 Мбайт (5%)
Заголовок : AC3 2.0 @ 640 kbps - Одноголосый закадровый, А.Гаврилов
Язык : Russian
Default : Нет
Forced : Нет
Аудио #7
Идентификатор : 8
Формат : AC-3
Формат/Информация : Audio Coding 3
Расширение режима : CM (complete main)
Параметр Endianness формата : Big
Идентификатор кодека : A_AC3
Продолжительность : 2 ч. 6 м.
Вид битрейта : Постоянный
Битрейт : 640 Кбит/сек
Каналы : 2 канала
Расположение каналов : Front: L R
Частота : 48,0 КГц
Битовая глубина : 16 бит
Метод сжатия : С потерями
Размер потока : 580 Мбайт (5%)
Заголовок : AC3 2.0 @ 640 kbps - Одноголосый закадровый, В.Горчаков
Язык : Russian
Default : Нет
Forced : Нет
Аудио #8
Идентификатор : 9
Формат : AC-3
Формат/Информация : Audio Coding 3
Расширение режима : CM (complete main)
Параметр Endianness формата : Big
Идентификатор кодека : A_AC3
Продолжительность : 2 ч. 6 м.
Вид битрейта : Постоянный
Битрейт : 640 Кбит/сек
Каналы : 2 канала
Расположение каналов : Front: L R
Частота : 48,0 КГц
Битовая глубина : 16 бит
Метод сжатия : С потерями
Размер потока : 580 Мбайт (5%)
Заголовок : AC3 2.0 @ 640 kbps - Одноголосый закадровый, Ю.Живов
Язык : Russian
Default : Нет
Forced : Нет
Аудио #9
Идентификатор : 10
Формат : AC-3
Формат/Информация : Audio Coding 3
Расширение режима : CM (complete main)
Параметр Endianness формата : Big
Идентификатор кодека : A_AC3
Продолжительность : 2 ч. 6 м.
Вид битрейта : Постоянный
Битрейт : 640 Кбит/сек
Каналы : 2 канала
Расположение каналов : Front: L R
Частота : 48,0 КГц
Битовая глубина : 16 бит
Метод сжатия : С потерями
Размер потока : 580 Мбайт (5%)
Заголовок : AC3 2.0 @ 640 kbps
Язык : English
Default : Нет
Forced : Нет
Текст #1
Идентификатор : 11
Формат : UTF-8
Идентификатор кодека : S_TEXT/UTF8
Идентификатор кодека/Информация : UTF-8 Plain Text
Язык : Russian
Default : Нет
Forced : Нет
Текст #2
Идентификатор : 12
Формат : UTF-8
Идентификатор кодека : S_TEXT/UTF8
Идентификатор кодека/Информация : UTF-8 Plain Text
Язык : English
Default : Нет
Forced : Нет
Меню
00:00:00.000 : en:00:00:00.000
00:03:01.973 : en:00:03:01.973
00:06:39.733 : en:00:06:39.733
00:10:21.162 : en:00:10:21.162
00:13:59.338 : en:00:13:59.338
00:15:40.189 : en:00:15:40.189
00:17:31.801 : en:00:17:31.801
00:19:02.141 : en:00:19:02.141
00:24:51.240 : en:00:24:51.240
00:28:40.135 : en:00:28:40.135
00:30:50.265 : en:00:30:50.265
00:32:43.211 : en:00:32:43.211
00:37:01.261 : en:00:37:01.261
00:38:27.138 : en:00:38:27.138
00:42:12.447 : en:00:42:12.447
00:45:46.160 : en:00:45:46.160
00:50:36.992 : en:00:50:36.992
00:54:14.376 : en:00:54:14.376
00:57:52.552 : en:00:57:52.552
00:59:42.746 : en:00:59:42.746
01:04:56.434 : en:01:04:56.434
01:08:47.457 : en:01:08:47.457
01:13:04.255 : en:01:13:04.255
01:15:17.304 : en:01:15:17.304
01:18:44.803 : en:01:18:44.803
01:20:33.162 : en:01:20:33.162
01:23:09.026 : en:01:23:09.026
01:27:27.242 : en:01:27:27.242
01:28:59.584 : en:01:28:59.584
01:30:58.912 : en:01:30:58.912
01:33:37.070 : en:01:33:37.070
01:36:39.502 : en:01:36:39.502
01:38:44.585 : en:01:38:44.585
01:40:35.529 : en:01:40:35.529
01:43:07.723 : en:01:43:07.723
01:48:09.400 : en:01:48:09.400
01:51:06.743 : en:01:51:06.743
01:54:02.836 : en:01:54:02.836
01:57:36.967 : en:01:57:36.967
01:59:21.571 : en:01:59:21.571
02:01:03.173 : en:02:01:03.173
02:02:42.689 : en:02:02:42.689
Киношка сделана по заказу пользователя
вячеслав

Релиз подготовлен 60 - fps

[Цитировать]
ENIGMA

Большое Спасибо! Улыбаюсь
 
Показать сообщения:    

Текущее время: 28-Май 00:15

Часовой пояс: UTC + 3


Вы не можете начинать темы
Вы не можете отвечать на сообщения
Вы не можете редактировать свои сообщения
Вы не можете удалять свои сообщения
Вы не можете голосовать в опросах
Вы не можете прикреплять файлы к сообщениям
Вы не можете скачивать файлы