Спортлото-82 (1982) DVDRip 720p | 60 fps Ширли-мырли (1995) BDRip 1080p | 60 fps Джентльмены удачи (1971) BDRip-AVC | 60 fps Тарас Бульба (2009) BDRip 1080p | 60 fps Обитаемый остров (2008) BDRip 1080p | 60 fps Бриллиантовая рука (1968) BDRip 1080p | 60 fps Обитаемый остров: Схватка (2009) BDRip 1080p | 60 fps 12 стульев (1971) BDRip 1080p | 60 fps
  1. Longevity:
    4 years 6 months
    Posts:
    1576
    Gender:
    Male
    Фильм «Осторожно! Двери закрываются!» Фильм- Информация
    Название: Метро
    Оригинальное название: Метро
    Год выхода: 2012
    Жанр: триллер, драма
    Режиссер: Антон Мегердичев
    Сценарий: Денис Курышев, Виктория Евсеева, Антон Мегердичев
    Продюсер: Игорь Толстунов, Сергей Козлов, Анна Кагарлицкая
    В ролях: Сергей Пускепалис,Анатолий Белый,Светлана Ходченкова,Анфиса Вистингаузен,Алексей Бардуков,Катерина Шпица,Елена Панова,Станислав Дужников,Кирилл Плетнёв,Иван Макаревич
    --Сюжет:
    Широко развернувшееся в центре Москвы строительство новых зданий приводит к тому, что в одном из тоннелей метро между двумя станциями возникает трещина. Никто себе и представить не мог, что в результате нарушения герметичности перекрытия в тоннель хлынет вода из Москва-реки, и сотни пассажиров поезда окажутся во власти надвигающегося потопа. Бешеный поток воды грозит не только обрушением тоннелей метро, но и разрушением всего города.
    Среди попавших в беду людей — врач городской больницы Андрей Гарин и его дочь Ксюша. Гарин сражается с катастрофой, пытаясь спасти оставшихся в живых пассажиров, в компании любовника своей жены. Гарину придется побороть обиду, гнев и страх. Он должен выжить, чтобы вернуть свою любовь, семью… свою прежнюю счастливую жизнь.
    -- Страна: Россия
    Продолжительность: 02:11:44

    Файл
    Кодек: MPEG4/ISO/AVC H.264
    Формат: MKV
    Качество: BDRip 720p | 60 fps
    Видео: 1280 x 544 (2.353) | 59,940 fps | 13,5 Мбит/сек
    Аудио 1: AC3 | 5.1 | 48 kHz | 448 Кбит/сек | 16 bit | Орегинал |
    Субтитры: НЕТ

    MedifInfo

    Видео
    Идентификатор : 1
    Формат : AVC
    Формат/Информация : Advanced Video Codec
    Профиль формата : [email protected]
    Параметр CABAC формата : Да
    Параметр ReFrames формата : 5 кадров
    Идентификатор кодека : V_MPEG4/ISO/AVC
    Продолжительность : 2 ч. 11 м.
    Битрейт : 13,5 Мбит/сек
    Ширина : 1280 пикселей
    Высота : 544 пикселя
    Соотношение сторон : 2,35:1
    Режим частоты кадров : Постоянный
    Частота кадров : 59,940 кадров/сек
    Цветовое пространство : YUV
    Субдискретизация насыщенности : 4:2:0
    Битовая глубина : 8 бит
    Тип развёртки : Прогрессивная
    Бит/(Пиксели*Кадры) : 0.323
    Размер потока : 12,2 Гбайт (95%)
    Библиотека кодирования : x264 core 120 r2120kMod 0c7dab9
    Настройки программы : cabac=1 / ref=5 / deblock=1:0:0 / analyse=0x3:0x113 / me=umh / subme=7 / psy=1 / fade_compensate=0.00 / psy_rd=1.00:0.00 / mixed_ref=1 / me_range=26 / chroma_me=1 / trellis=2 / 8x8dct=1 / cqm=0 / deadzone=21,11 / fast_pskip=1 / chroma_qp_offset=-2 / threads=8 / sliced_threads=1 / slices=8 / nr=0 / decimate=1 / interlaced=0 / bluray_compat=0 / constrained_intra=0 / bframes=8 / b_pyramid=2 / b_adapt=2 / b_bias=0 / direct=2 / weightb=1 / open_gop=0 / weightp=2 / keyint=300 / keyint_min=30 / scenecut=40 / intra_refresh=0 / rc=2pass / mbtree=0 / bitrate=13500 / ratetol=1.0 / qcomp=0.60 / qpmin=10 / qpmax=51 / qpstep=4 / cplxblur=20.0 / qblur=0.5 / ip_ratio=1.40 / pb_ratio=1.30 / aq=1:1.00
    Язык : Russian
    Default : Да
    Forced : Нет
    Аудио
    Идентификатор : 2
    Формат : AC-3
    Формат/Информация : Audio Coding 3
    Расширение режима : CM (complete main)
    Параметр Endianness формата : Big
    Идентификатор кодека : A_AC3
    Продолжительность : 2 ч. 11 м.
    Вид битрейта : Постоянный
    Битрейт : 448 Кбит/сек
    Каналы : 6 каналов
    Расположение каналов : Front: L C R, Side: L R, LFE
    Частота : 48,0 КГц
    Частота кадров : 31,250 кадров/сек (1536 spf)
    Битовая глубина : 16 бит
    Метод сжатия : С потерями
    Размер потока : 422 Мбайт (3%)
    Язык : Russian
    Default : Да
    Forced : Нет


You cannot post new topics in this forum
You cannot reply to topics in this forum
You cannot edit your posts in this forum
You cannot delete your posts in this forum
You cannot vote in polls in this forum
You cannot attach files in this forum
You cannot download files in this forum