«Месть в наследство»- Информация
Название: Место под соснами
Оригинальное название: The Place Beyond the Pines
Год выхода: 2012
Жанр: триллер, драма, криминал
Режиссер: Дерек Сиенфрэнс
Сценарий: Дерек Сиенфрэнс, Бен Коссио, Дариус Мардер
Продюсер: Сидни Киммел, Алекс Орловский, Джэми Патрикоф
В ролях: Райан Гослинг, Рэй Лиотта, Ева Мендес, Брэдли Купер, Бен Мендельсон, Роуз Бирн, Махершалалхашбаз Али, Брюс Гринвуд, Харрис Юлин, Крэйг Ван Хук
--Сюжет:
Мотокаскадер Люк Глэнтон совершает турне из одной провинции в другую, показывая свои каскадерские навыки и зарабатывая этим на жизнь. По окончании одного из своих выступлений он встречает свою бывшую девушку — Ромину, вскоре узнав, что у нее от него годовалый сын — Джейсон. Решив обеспечивать сына он бросает свою работу каскадера, однако Ромина против того, чтобы Люк был в жизни ее сына, поскольку она сама вовлечена в отношения с Кофи. Тем не менее, Люк остается в городе и устраивается на работу к механику Робину, но вскоре понимает, что заработанных денег не хватает для обеспечения семьи. Робин предлагает ему ограбить банк…
- Страна: США
Продолжительность: 02:20:30

Файл
Кодек: MPEG4/ISO/AVC/H.264
Формат: MKV
Качество: BDRip 720p | 60 fps
Видео: 1280x534 | 60.000 fps | 7.3 Мбит/сек
Аудио 1: AC3 | 5.1 | 48 kHz | 640 kbps | 16 bit | Дубляж - iTunes |
Аудио 2: AC3 | 5.1 | 48 kHz | 640 kbps | 16 bit | Eng |
Субтитры: Русские, английские

MedifInfo

Video
ID : 1
Format : AVC
Format/Info : Advanced Video Codec
Format profile : High@L4.1
Format settings, CABAC : Yes
Format settings, ReFrames : 9 frames
Codec ID : V_MPEG4/ISO/AVC
Duration : 2 h 20 min
Bit rate : 7 357 kb/s
Width : 1 280 pixels
Height : 534 pixels
Display aspect ratio : 2.40:1
Frame rate mode : Constant
Frame rate : 60.000 FPS
Color space : YUV
Chroma subsampling : 4:2:0
Bit depth : 8 bits
Scan type : Progressive
Bits/(Pixel*Frame) : 0.179
Stream size : 7.22 GiB (83%)
Writing library : x264 core 146 r2538 121396c
Encoding settings : cabac=1 / ref=9 / deblock=1:0:0 / analyse=0x3:0x113 / me=umh / subme=11 / psy=1 / psy_rd=1.00:0.00 / mixed_ref=1 / me_range=24 / chroma_me=1 / trellis=2 / 8x8dct=1 / cqm=0 / deadzone=21,11 / fast_pskip=0 / chroma_qp_offset=-2 / threads=12 / lookahead_threads=1 / sliced_threads=0 / nr=0 / decimate=1 / interlaced=0 / bluray_compat=0 / constrained_intra=0 / bframes=5 / b_pyramid=2 / b_adapt=2 / b_bias=0 / direct=3 / weightb=1 / open_gop=0 / weightp=2 / keyint=250 / keyint_min=25 / scenecut=40 / intra_refresh=0 / rc=crf / mbtree=0 / crf=16.8 / qcomp=0.60 / qpmin=0 / qpmax=69 / qpstep=4 / ip_ratio=1.40 / pb_ratio=1.30 / aq=3:0.80
Language : English
Default : Yes
Forced : No
Audio #1
ID : 2
Format : AC-3
Format/Info : Audio Coding 3
Format settings, Endianness : Big
Codec ID : A_AC3
Duration : 2 h 20 min
Bit rate mode : Constant
Bit rate : 640 kb/s
Channel(s) : 6 channels
Channel positions : Front: L C R, Side: L R, LFE
Sampling rate : 48.0 kHz
Frame rate : 31.250 FPS (1536 spf)
Bit depth : 16 bits
Compression mode : Lossy
Stream size : 643 MiB (7%)
Title : Dub
Language : Russian
Service kind : Complete Main
Default : Yes
Forced : No
Audio #2
ID : 3
Format : AC-3
Format/Info : Audio Coding 3
Format settings, Endianness : Big
Codec ID : A_AC3
Duration : 2 h 20 min
Bit rate mode : Constant
Bit rate : 640 kb/s
Channel(s) : 6 channels
Channel positions : Front: L C R, Side: L R, LFE
Sampling rate : 48.0 kHz
Frame rate : 31.250 FPS (1536 spf)
Bit depth : 16 bits
Compression mode : Lossy
Stream size : 643 MiB (7%)
Title : Eng
Language : English
Service kind : Complete Main
Default : No
Forced : No
Text #1
ID : 4
Format : UTF-8
Codec ID : S_TEXT/UTF8
Codec ID/Info : UTF-8 Plain Text
Title : Rus full
Language : Russian
Default : No
Forced : No
Text #2
ID : 5
Format : UTF-8
Codec ID : S_TEXT/UTF8
Codec ID/Info : UTF-8 Plain Text
Title : Eng full
Language : English
Default : No
Forced : No
Menu
00:00:00.000 : :Chapter 01
00:07:16.894 : :Chapter 02
00:15:56.080 : :Chapter 03
00:21:35.210 : :Chapter 04
00:29:41.362 : :Chapter 05
00:37:56.399 : :Chapter 06
00:44:18.238 : :Chapter 07
00:52:05.872 : :Chapter 08
01:02:18.484 : :Chapter 09
01:11:22.319 : :Chapter 10
01:17:31.897 : :Chapter 11
01:26:23.386 : :Chapter 12
01:31:48.628 : :Chapter 13
01:36:01.547 : :Chapter 14
01:41:10.189 : :Chapter 15
01:47:22.227 : :Chapter 16
01:57:08.688 : :Chapter 17
02:03:59.849 : :Chapter 18
02:10:48.507 : :Chapter 19
02:16:31.808 : :Chapter 20
 
Показать сообщения:    

Текущее время: 19-Окт 04:35

Часовой пояс: UTC + 3


Вы не можете начинать темы
Вы не можете отвечать на сообщения
Вы не можете редактировать свои сообщения
Вы не можете удалять свои сообщения
Вы не можете голосовать в опросах
Вы не можете прикреплять файлы к сообщениям
Вы не можете скачивать файлы