Тор: Рагнарёк / Thor: Ragnarok (2017) BDRip 1080p | 60 fps Стражи Галактики. Часть 2 / Guardians of the Galaxy Vol. 2 (2017) BDRip 1080p | 60 fps Мстители: Эра Альтрона / Avengers: Age of Ultron (2015) BDRip 1080p | 60 fps Человек-паук: Возвращение домой / Spider-Man: Homecoming (2017) BDRip 1080p | 60 fps Валериан и город тысячи планет / Valerian and the City of a Thousand Planets (2017) BDRip 1080p | 60 fps Доктор Стрэндж / Doctor Strange (2016) BDRip 1080p | 60 fps Пираты Карибского моря: Мертвецы не рассказывают сказки / Pirates of the Caribbean: Dead Men Tell No Tales (2017) BDRip 1080p | 60 fps Аватар / Avatar (2009) BDRip 1080p | 60 fps
  1. Стаж:
    3 года 7 месяцев
    Сообщений:
    2332
    Пол:
    Мужской
    «Inspector Clouseau is back...and he's a bigger fool than anyone gives him the credits for» Информация
    Название: Месть Розовой пантеры
    Оригинальное название: Revenge of the Pink Panther
    Год выхода: 1978
    Жанр: комедия, криминал, детектив
    Режиссер: Блейк Эдвардс
    Сценарий: Блейк Эдвардс, Фрэнк Уолдман, Рон Кларк
    Продюсер: Блейк Эдвардс, Тони Адамс, Дерек Кавана
    В ролях: Питер Селлерс, Херберт Лом, Берт Квук, Дайан Кэннон, Роберт Уэббер, Тони Бекли, Роберт Лоджа, Пол Стюарт, Андре Маранн, Грэм Старк

    Сюжет:
    По Франции разносится слух, что старший инспектор Клузо погиб. Вся страна скорбит, ликует лишь один инспектор Дрейфус… Наконец-то, он избавился от ненавистного коллеги! Однако его радость быстро заканчивается. Оказалось, что смерть Клузо — всего лишь мистификация, задуманная им самим, чтобы поймать опаснейшего преступника.

    Страна: США, Великобритания, Венгрия, Канада
    Продолжительность: 01:38:58

    Файл
    Кодек: H.264
    Формат: MKV
    Качество: BDRip 720p | 60 fps
    Видео: 1280 x 544 (2.353) | 59.940 fps | 10.0 Мбит/сек
    Аудио 01: AC3 | 2.0 | 48 kHz | 192 kbps | 16 bit | Дубляж - THT |
    Аудио 02: AC3 | 5.1 | 48 kHz | 448 kbps | 16 bit | Профессиональный многоголосый |
    Аудио 03: AC3 | 2.0 | 48 kHz | 192 kbps | 16 bit | Профессиональный многоголосый - НТВ+ |
    Аудио 04: AC3 | 2.0 | 48 kHz | 192 kbps | 16 bit | Авторский - Алексей Михалёв |
    Аудио 05: AC3 | 5.1 | 48 kHz | 448 kbps | 16 bit | English |
    Субтитры: Русские (forced, full), английские

    MedifInfo

    Видео
    Идентификатор : 1
    Формат : AVC
    Формат/Информация : Advanced Video Codec
    Профиль формата : High@L4.1
    Параметр CABAC формата : Да
    Параметр ReFrames формата : 5 кадров
    Идентификатор кодека : V_MPEG4/ISO/AVC
    Продолжительность : 1 ч. 38 м.
    Битрейт : 9999 Кбит/сек
    Ширина : 1280 пикселей
    Высота : 544 пикселя
    Соотношение сторон : 2,35:1
    Режим частоты кадров : Постоянный
    Частота кадров : 59,880 кадров/сек
    Частота кадров в оригинале : 59,940 кадров/сек
    Цветовое пространство : YUV
    Субдискретизация насыщенности : 4:2:0
    Битовая глубина : 8 бит
    Тип развёртки : Прогрессивная
    Бит/(Пиксели*Кадры) : 0.240
    Размер потока : 6,75 Гбайт (85%)
    Заголовок : www.60-fps.org
    Библиотека кодирования : x264 core 152 r2851 ba24899
    Настройки программы : cabac=1 / ref=5 / deblock=1:-3:-3 / analyse=0x3:0x113 / me=hex / subme=8 / psy=1 / psy_rd=1.00:0.25 / mixed_ref=1 / me_range=16 / chroma_me=1 / trellis=2 / 8x8dct=1 / cqm=0 / deadzone=6,6 / fast_pskip=1 / chroma_qp_offset=-4 / threads=12 / lookahead_threads=2 / sliced_threads=0 / nr=0 / decimate=0 / interlaced=0 / bluray_compat=0 / constrained_intra=0 / bframes=3 / b_pyramid=2 / b_adapt=1 / b_bias=0 / direct=3 / weightb=1 / open_gop=0 / weightp=2 / keyint=599 / keyint_min=59 / scenecut=40 / intra_refresh=0 / rc_lookahead=50 / rc=2pass / mbtree=1 / bitrate=9999 / ratetol=1.0 / qcomp=0.80 / qpmin=0 / qpmax=69 / qpstep=4 / cplxblur=20.0 / qblur=0.5 / vbv_maxrate=62500 / vbv_bufsize=78125 / nal_hrd=none / filler=0 / ip_ratio=1.10 / aq=1:0.50
    Default : Да
    Forced : Нет
    Аудио #1
    Идентификатор : 2
    Формат : AC-3
    Формат/Информация : Audio Coding 3
    Расширение режима : CM (complete main)
    Параметр Endianness формата : Big
    Идентификатор кодека : A_AC3
    Продолжительность : 1 ч. 38 м.
    Вид битрейта : Постоянный
    Битрейт : 192 Кбит/сек
    Каналы : 2 канала
    Расположение каналов : Front: L R
    Частота : 48,0 КГц
    Битовая глубина : 16 бит
    Метод сжатия : С потерями
    Размер потока : 136 Мбайт (2%)
    Заголовок : Дубляж - THT
    Язык : Russian
    Default : Да
    Forced : Нет
    Аудио #2
    Идентификатор : 3
    Формат : AC-3
    Формат/Информация : Audio Coding 3
    Расширение режима : CM (complete main)
    Параметр Endianness формата : Big
    Идентификатор кодека : A_AC3
    Продолжительность : 1 ч. 38 м.
    Вид битрейта : Постоянный
    Битрейт : 448 Кбит/сек
    Каналы : 6 каналов
    Расположение каналов : Front: L C R, Side: L R, LFE
    Частота : 48,0 КГц
    Битовая глубина : 16 бит
    Метод сжатия : С потерями
    Размер потока : 317 Мбайт (4%)
    Заголовок : MVO
    Язык : Russian
    Default : Нет
    Forced : Нет
    Аудио #3
    Идентификатор : 4
    Формат : AC-3
    Формат/Информация : Audio Coding 3
    Расширение режима : CM (complete main)
    Параметр Endianness формата : Big
    Идентификатор кодека : A_AC3
    Продолжительность : 1 ч. 38 м.
    Вид битрейта : Постоянный
    Битрейт : 192 Кбит/сек
    Каналы : 2 канала
    Расположение каналов : Front: L R
    Частота : 48,0 КГц
    Битовая глубина : 16 бит
    Метод сжатия : С потерями
    Размер потока : 136 Мбайт (2%)
    Заголовок : Профессиональный многоголосый - НТВ+
    Язык : Russian
    Default : Нет
    Forced : Нет
    Аудио #4
    Идентификатор : 5
    Формат : AC-3
    Формат/Информация : Audio Coding 3
    Расширение режима : CM (complete main)
    Параметр Endianness формата : Big
    Идентификатор кодека : A_AC3
    Продолжительность : 1 ч. 38 м.
    Вид битрейта : Постоянный
    Битрейт : 192 Кбит/сек
    Каналы : 2 канала
    Расположение каналов : Front: L R
    Частота : 48,0 КГц
    Битовая глубина : 16 бит
    Метод сжатия : С потерями
    Размер потока : 136 Мбайт (2%)
    Заголовок : Авторский - Алексей Михалёв
    Язык : Russian
    Default : Нет
    Forced : Нет
    Аудио #5
    Идентификатор : 6
    Формат : AC-3
    Формат/Информация : Audio Coding 3
    Расширение режима : CM (complete main)
    Параметр Endianness формата : Big
    Идентификатор кодека : A_AC3
    Продолжительность : 1 ч. 38 м.
    Вид битрейта : Постоянный
    Битрейт : 448 Кбит/сек
    Каналы : 6 каналов
    Расположение каналов : Front: L C R, Side: L R, LFE
    Частота : 48,0 КГц
    Битовая глубина : 16 бит
    Метод сжатия : С потерями
    Размер потока : 317 Мбайт (4%)
    Заголовок : English
    Язык : English
    Default : Нет
    Forced : Нет
    Меню
    00:00:00.000 : en:Chapter 1
    00:11:46.164 : en:Chapter 2
    00:19:25.373 : en:Chapter 3
    00:26:16.533 : en:Chapter 4
    00:34:51.423 : en:Chapter 5
    00:44:37.592 : en:Chapter 6
    00:52:39.823 : en:Chapter 7
    01:01:04.578 : en:Chapter 8
    01:09:27.372 : en:Chapter 9
    01:17:24.473 : en:Chapter 10
    01:25:02.389 : en:Chapter 11
    01:31:18.056 : en:Chapter 12

    Релиз подготовлен 60 - fps



Вы не можете начинать темы
Вы не можете отвечать на сообщения
Вы не можете редактировать свои сообщения
Вы не можете удалять свои сообщения
Вы не можете голосовать в опросах
Вы не можете прикреплять файлы к сообщениям
Вы не можете скачивать файлы