[Цитировать]
Kryl

-Melanie Martinez - Tag, You're It/Milk and Cookies Double Feature (2016) Master 1080p | 60 fps- -Информация
Исполнитель: Melanie Martinez
Название: Tag, You're It/Milk and Cookies Double Feature
Год выхода: 2016
Продолжительность: 00:06:44-Файл
Кодек: MPEG4/ISO/AVC/H.264/High@L4.2
Формат: MKV
Качество: Master 1080p | 60 fps
Видео : 1920 x 704 (2.727) | 59.940 fps 20.0 Мбит/сек
Аудио : DTS | 1413 Кбит/сек | 48.0 KHz | 2.0 ch

MediaInfo

Видео
Идентификатор : 1
Формат : AVC
Формат/Информация : Advanced Video Codec
Профиль формата : High@L4.2
Параметр CABAC формата : Да
Параметр ReFrames формата : 3 кадра
Идентификатор кодека : V_MPEG4/ISO/AVC
Продолжительность : 6 м. 44 с.
Вид битрейта : Переменный
Битрейт : 19,1 Мбит/сек
Максимальный битрейт : 20,0 Мбит/сек
Ширина : 1920 пикселей
Высота : 704 пикселя
Соотношение сторон : 2,727
Режим частоты кадров : Постоянный
Частота кадров : 59,880 кадров/сек
Частота кадров в оригинале : 59,940 кадров/сек
Стандарт вещания : PAL
Цветовое пространство : YUV
Субдискретизация насыщенности : 4:2:0
Битовая глубина : 8 бит
Тип развёртки : Прогрессивная
Бит/(Пиксели*Кадры) : 0.237
Размер потока : 923 Мбайт (91%)
Заголовок : www.60-fps.org
Язык : English
Default : Да
Forced : Нет
Основные цвета : BT.709
Характеристики трансфера : BT.709
Коэффициенты матрицы : BT.709
colour_range : Limited
Аудио
Идентификатор : 2
Формат : DTS
Формат/Информация : Digital Theater Systems
Режим : 16
Параметр Endianness формата : Big
Идентификатор кодека : A_DTS
Продолжительность : 6 м. 44 с.
Вид битрейта : Постоянный
Битрейт : 1413 Кбит/сек
Каналы : 2 канала
Расположение каналов : Front: L R
Частота : 48,0 КГц
Битовая глубина : 16 бит
Метод сжатия : С потерями
Задержка видео : 83 мс.
Размер потока : 68,1 Мбайт (7%)
Язык : English
Default : Да
Forced : Нет
DURATION : 00:06:44.331000000
NUMBER_OF_FRAMES : 37906
NUMBER_OF_BYTES : 71414904
_STATISTICS_WRITING_APP : mkvmerge v7.6.0 ('Garden of Dreams') 32bit built on Feb 8 2015 12:51:39
_STATISTICS_WRITING_DATE_UTC : 2016-09-19 20:56:52
_STATISTICS_TAGS : BPS DURATION NUMBER_OF_FRAMES NUMBER_OF_BYTES

Релиз подготовлен 60 - fps

[60-fps.org].t2277.torrent
Торрент: Зарегистрирован [ 2016-09-20 00:05 ] · E00BF3B11803D122856B1EC1F26BD9CA418CCDE7

Скачать .torrent

Скачать

20 KB

Статус: проверено
Скачан: 7 раз
Поблагодарили:
Размер: 1011 MB
 
Похожие Темы

[Цитировать]
kiryandr

Дай скачать)))
Злой

[Цитировать]
Kryl

6485Дай скачать)))
Злой
Смеюсь Смеюсь Смеюсь
 
Показать сообщения:    

Текущее время: 28-Фев 13:00

Часовой пояс: UTC + 3


Вы не можете начинать темы
Вы не можете отвечать на сообщения
Вы не можете редактировать свои сообщения
Вы не можете удалять свои сообщения
Вы не можете голосовать в опросах
Вы не можете прикреплять файлы к сообщениям
Вы можете скачивать файлы