[Цитировать]
Kryl

-Melanie Martinez - Cry Baby (2016) Master 1080p | 60 fps- -Информация
Исполнитель: Melanie Martinez
Название: Cry Baby
Год выхода: 2016
Продолжительность: 00:06:06-Файл
Кодек: MPEG4/ISO/AVC/H.264/High@L4.2
Формат: MKV
Качество: Master 1080p | 60 fps
Видео : 1920 x 804 (2.388) | 59.940 fps 25.0 Мбит/сек
Аудио : DTS | 1413 Кбит/сек | 48.0 KHz | 2.0 ch

MediaInfo

Видео
Идентификатор : 1
Формат : AVC
Формат/Информация : Advanced Video Codec
Профиль формата : High@L4.2
Параметр CABAC формата : Да
Параметр ReFrames формата : 3 кадра
Параметр GOP формата : M=3, N=72
Идентификатор кодека : V_MPEG4/ISO/AVC
Продолжительность : 6 м. 6 с.
Вид битрейта : Переменный
Битрейт : 24,2 Мбит/сек
Максимальный битрейт : 25,0 Мбит/сек
Ширина : 1920 пикселей
Высота : 804 пикселя
Соотношение сторон : 2,40:1
Режим частоты кадров : Постоянный
Частота кадров : 59,880 кадров/сек
Частота кадров в оригинале : 59,940 кадров/сек
Стандарт вещания : PAL
Цветовое пространство : YUV
Субдискретизация насыщенности : 4:2:0
Битовая глубина : 8 бит
Тип развёртки : Прогрессивная
Бит/(Пиксели*Кадры) : 0.262
Размер потока : 1,03 Гбайт (93%)
Заголовок : www.60-fps.org
Язык : English
Default : Да
Forced : Нет
Основные цвета : BT.709
Характеристики трансфера : BT.709
Коэффициенты матрицы : BT.709
colour_range : Limited
Аудио
Идентификатор : 2
Формат : DTS
Формат/Информация : Digital Theater Systems
Режим : 16
Параметр Endianness формата : Big
Идентификатор кодека : A_DTS
Продолжительность : 6 м. 6 с.
Вид битрейта : Постоянный
Битрейт : 1413 Кбит/сек
Каналы : 2 канала
Расположение каналов : Front: L R
Частота : 48,0 КГц
Битовая глубина : 16 бит
Метод сжатия : С потерями
Задержка видео : 83 мс.
Размер потока : 61,7 Мбайт (5%)
Язык : English
Default : Да
Forced : Нет
DURATION : 00:06:06.080000000
NUMBER_OF_FRAMES : 34320
NUMBER_OF_BYTES : 64658880
_STATISTICS_WRITING_APP : mkvmerge v7.6.0 ('Garden of Dreams') 32bit built on Feb 8 2015 12:51:39
_STATISTICS_WRITING_DATE_UTC : 2016-09-19 18:51:32
_STATISTICS_TAGS : BPS DURATION NUMBER_OF_FRAMES NUMBER_OF_BYTES

Релиз подготовлен 60 - fps

[60-fps.org].t2276.torrent
Торрент: Зарегистрирован [ 2016-09-19 22:00 ] · A4239F4D0A6299B36CA4A165DCE0E750E39020C3

Скачать .torrent

Скачать

12 KB

Статус: проверено
Скачан: 9 раз
Поблагодарили:
Размер: 1,12 GB
 
Похожие Темы
 
Показать сообщения:    

Текущее время: 25-Фев 18:52

Часовой пояс: UTC + 3


Вы не можете начинать темы
Вы не можете отвечать на сообщения
Вы не можете редактировать свои сообщения
Вы не можете удалять свои сообщения
Вы не можете голосовать в опросах
Вы не можете прикреплять файлы к сообщениям
Вы можете скачивать файлы